<?xml version="1.0" standalone="no"?>
<!DOCTYPE svg PUBLIC "-//W3C//DTD SVG 1.1//EN" "http://www.w3.org/Graphics/SVG/1.1/DTD/svg11.dtd" >
<svg xmlns="http://www.w3.org/2000/svg" xmlns:xlink="http://www.w3.org/1999/xlink" version="1.1">
<metadata>
Created by FontForge 20201107 at Mon Jun  1 20:35:20 2015
 By www-data
Copyright (c) 2014 Indian Type Foundry (info@indiantypefoundry.com)
</metadata>
<defs>
<font id="Poppins" horiz-adv-x="314" >
  <font-face 
    font-family="Poppins"
    font-weight="700"
    font-stretch="normal"
    units-per-em="1000"
    panose-1="2 0 0 0 0 0 0 0 0 0"
    ascent="800"
    descent="-200"
    x-height="558"
    cap-height="702"
    bbox="-556 -525 2513 1115"
    underline-thickness="50"
    underline-position="-150"
    unicode-range="U+000D-F03E4"
  />
<missing-glyph horiz-adv-x="756" 
d="M241 625v-549h275v549h-275zM160 0v701h436v-701h-436z" />
    <glyph glyph-name="uniFB01" unicode="fi" horiz-adv-x="657" 
d="M248 579v-21h334v-558h-171v416h-163v-416h-171v416h-52v142h52v21q0 106 56.5 155t177.5 49v-145q-34 0 -48.5 -13t-14.5 -46zM496 592q-42 0 -71 29t-29 71.5t29 71.5t71 29t71 -29t29 -71.5t-29 -71.5t-71 -29z" />
    <glyph glyph-name="uniFB02" unicode="fl" horiz-adv-x="657" 
d="M411 740h171v-740h-171v740zM248 579v-21h71v-142h-71v-416h-171v416h-52v142h52v21q0 106 56.5 155t177.5 49v-145q-34 0 -48.5 -13t-14.5 -46z" />
    <glyph glyph-name=".notdef" horiz-adv-x="756" 
d="M241 625v-549h275v549h-275zM160 0v701h436v-701h-436z" />
    <glyph glyph-name="uF0001" unicode="&#xf0001;" horiz-adv-x="0" 
 />
    <glyph glyph-name="uF0002" unicode="&#xf0002;" horiz-adv-x="333" 
 />
    <glyph glyph-name="uni0000" horiz-adv-x="0" 
 />
    <glyph glyph-name="uni000D" unicode="&#xd;" horiz-adv-x="300" 
 />
    <glyph glyph-name="space" unicode=" " horiz-adv-x="300" 
 />
    <glyph glyph-name="exclam" unicode="!" horiz-adv-x="425" 
d="M292 27q-27 -27 -66.5 -27t-66.5 27t-27 66.5t27 66.5t66.5 27t66.5 -27t27 -66.5t-27 -66.5zM149 252l-20 500h185l-20 -500h-145z" />
    <glyph glyph-name="quotedbl" unicode="&#x22;" horiz-adv-x="411" 
d="M243 579l-13 221h141l-13 -221h-115zM53 579l-13 221h141l-13 -221h-115z" />
    <glyph glyph-name="numbersign" unicode="#" horiz-adv-x="929" 
d="M867 449h-150l-33 -153h118v-154h-151l-30 -142h-160l30 142h-166l-30 -142h-160l30 142h-150v154h183l33 153h-151v154h184l29 137h160l-29 -137h166l29 137h160l-29 -137h117v-154zM524 296l33 153h-166l-33 -153h166z" />
    <glyph glyph-name="dollar" unicode="$" horiz-adv-x="643" 
d="M587 209q0 -83 -64 -144.5t-166 -70.5v-81h-59v81q-110 7 -174 63.5t-64 154.5h182q6 -67 56 -80v157q-46 11 -88.5 26t-53.5 22t-29.5 19t-28 25t-20.5 30q-18 30 -18 85q0 91 68 148.5t170 66.5v81h59v-81q105 -6 166 -57.5t64 -155.5h-176q-6 55 -54 74v-158
q100 -28 131 -43q99 -50 99 -162zM298 574q-58 -11 -58 -63t58 -77v140zM357 132q50 14 50 62t-50 73v-135z" />
    <glyph glyph-name="percent" unicode="%" horiz-adv-x="814" 
d="M666 158q0 67 -48.5 67t-48.5 -67t48.5 -67t48.5 67zM451 158q0 80 46.5 124t120.5 44t120 -44t46 -124t-46 -124t-120 -44t-120.5 44t-46.5 124zM132 0l385 704h165l-385 -704h-165zM245 546q0 67 -48.5 67t-48.5 -67t48.5 -67t48.5 67zM30 546q0 80 46.5 124t120.5 44
t120 -44t46 -124t-46 -124t-120 -44t-120.5 44t-46.5 124z" />
    <glyph glyph-name="ampersand" unicode="&#x26;" horiz-adv-x="700" 
d="M257 -7q-95 0 -161 66t-66 153t45.5 147t112.5 75q-47 72 -47 124q0 75 54.5 128.5t150.5 53.5t151.5 -49t55.5 -115q0 -36 -14 -64h-162q11 17 11 37.5t-11.5 32.5t-29.5 12t-29.5 -12t-11.5 -31.5t20 -46.5l374 -504h-197l-62 89q-30 -43 -79 -69.5t-105 -26.5z
M197 159.5q25 -25.5 60.5 -25.5t61 25.5t25.5 61t-25.5 60.5t-61 25t-60.5 -25t-25 -60.5t25 -61z" />
    <glyph glyph-name="quotesingle" unicode="'" horiz-adv-x="221" 
d="M53 579l-13 221h141l-13 -221h-115z" />
    <glyph glyph-name="parenleft" unicode="(" horiz-adv-x="480" 
d="M142 60.5q-75 154.5 -75 342t75 342t197 246.5h169v-16q-276 -226 -276 -573t276 -573v-16h-169q-122 93 -197 247.5z" />
    <glyph glyph-name="parenright" unicode=")" horiz-adv-x="482" 
d="M340 744.5q75 -154.5 75 -342t-75 -342t-197 -247.5h-169v16q276 226 276 573t-276 573v16h169q122 -92 197 -246.5z" />
    <glyph glyph-name="asterisk" unicode="*" horiz-adv-x="534" 
d="M329 740l-26 -132l104 87l56 -102l-123 -43l123 -42l-60 -106l-100 88l25 -130h-117l24 130l-99 -89l-62 108l123 43l-122 40l57 103l104 -87l-26 132h119z" />
    <glyph glyph-name="plus" unicode="+" horiz-adv-x="650" 
d="M580 427v-155h-173v-177h-164v177h-173v155h173v178h164v-178h173z" />
    <glyph glyph-name="comma" unicode="," horiz-adv-x="241" 
d="M30 106h141q44 -101 23 -190q-11 -44 -47.5 -72t-95.5 -28v65q27 0 39.5 12t12.5 44v16h-73v153z" />
    <glyph glyph-name="hyphen" unicode="-" horiz-adv-x="580" 
d="M70 280v142h440v-142h-440z" />
    <glyph glyph-name="period" unicode="." horiz-adv-x="257" 
d="M195 27q-27 -27 -66.5 -27t-66.5 27t-27 66.5t27 66.5t66.5 27t66.5 -27t27 -66.5t-27 -66.5z" />
    <glyph glyph-name="slash" unicode="/" horiz-adv-x="453" 
d="M10 -187l268 1137h165l-268 -1137h-165z" />
    <glyph glyph-name="zero" unicode="0" horiz-adv-x="652" 
d="M326 725q76 0 131.5 -27t87.5 -77t47 -113.5t15 -143.5t-15 -143.5t-47 -113.5t-87.5 -77t-131.5 -27t-131.5 27t-87.5 77t-47 113.5t-15 143.5t15 143.5t47 113.5t87.5 77t131.5 27zM326 565q-29 0 -50.5 -11.5t-33 -28.5t-18.5 -45t-9 -54t-2 -62t2 -62t9 -54t18.5 -45
t33 -28.5t50.5 -11.5t50.5 11.5t33 28.5t18.5 45t9 54t2 62t-2 62t-9 54t-18.5 45t-33 28.5t-50.5 11.5z" />
    <glyph glyph-name="one" unicode="1" horiz-adv-x="421" 
d="M149 0v551h-121v159h298v-710h-177z" />
    <glyph glyph-name="two" unicode="2" horiz-adv-x="571" 
d="M39 10v127q27 24 76 66t76 65.5t63 59t54 60.5q47 65 47 113q0 85 -75 85q-36 0 -57 -25.5t-21 -73.5h-165q0 120 69.5 181.5t182.5 61.5t176 -64.5t63 -155.5q0 -69 -30 -121q-18 -30 -31 -51t-43 -52t-44 -45t-51.5 -48t-47.5 -44h260v-139h-502z" />
    <glyph glyph-name="three" unicode="3" horiz-adv-x="605" 
d="M296 598q-69 0 -76 -74h-166q0 105 67.5 162.5t179.5 57.5t174 -55t62 -140q0 -67 -32.5 -109t-66.5 -56v-4q112 -43 112 -173q0 -98 -65.5 -154.5t-181 -56.5t-188.5 59t-73 176h166q1 -44 25 -69.5t66.5 -25.5t64 23t21.5 65.5t-30 63.5t-98 21h-32v139h32
q114 0 114 80q0 32 -20.5 51t-54.5 19z" />
    <glyph glyph-name="four" unicode="4" horiz-adv-x="677" 
d="M397 278v248l-158 -248h158zM385 0v130h-336v138l316 452h191v-442h82v-148h-82v-130h-171z" />
    <glyph glyph-name="five" unicode="5" horiz-adv-x="650" 
d="M92 731h456v-150h-301v-128q45 40 114.5 40t117.5 -22.5t73 -59.5q49 -73 49 -157q0 -117 -69 -185.5t-189 -68.5t-189.5 57.5t-78.5 148.5h169q5 -29 31 -47.5t70 -18.5t67.5 29.5t23.5 78.5t-24.5 76t-65.5 27t-62.5 -17.5t-26.5 -43.5h-165v441z" />
    <glyph glyph-name="six" unicode="6" horiz-adv-x="637" 
d="M393.5 309.5q-24.5 29.5 -71 29.5t-72.5 -26t-26 -72.5t29.5 -74t73 -27.5t67.5 27.5t24 70.5t-24.5 72.5zM322 607q-110 0 -111 -188q24 31 66 46t84 15q100 0 161.5 -62t61.5 -174t-66 -178t-179 -66q-146 0 -213 89t-67 281q0 377 266 377q110 0 169.5 -59.5
t70.5 -148.5h-159q-14 68 -84 68z" />
    <glyph glyph-name="seven" unicode="7" horiz-adv-x="560" 
d="M41 721h482v-126l-260 -595h-185l273 581h-310v140z" />
    <glyph glyph-name="eight" unicode="8" horiz-adv-x="648" 
d="M396.5 296q-25.5 27 -73 27t-76 -26t-28.5 -70.5t27.5 -72.5t76 -28t74 28.5t25.5 71.5t-25.5 70zM386.5 591q-23.5 23 -61.5 23t-62.5 -23t-24.5 -62.5t25 -63t61 -23.5t61 24t25 63t-23.5 62zM71 554q0 82 66 141t187 59t186.5 -59.5t65.5 -141.5q0 -104 -93 -156
q111 -54 111 -181q0 -105 -77 -167.5t-192.5 -62.5t-193 63t-77.5 167q0 127 111 181q-94 52 -94 157z" />
    <glyph glyph-name="nine" unicode="9" horiz-adv-x="637" 
d="M251.5 438.5q23.5 -28.5 69 -28.5t70 25.5t24.5 72t-25 72t-69 25.5t-68.5 -28.5t-24.5 -69t23.5 -69zM332 140q51 0 74 40.5t23 133.5q-19 -18 -56 -31t-78 -13q-105 0 -168 57t-63 171.5t67 180.5t183 66q156 0 214 -102q28 -51 40 -115.5t12 -148t-6.5 -138.5
t-24 -102.5t-46.5 -76.5q-60 -62 -181.5 -62t-179.5 64t-60 160h159q12 -84 91 -84z" />
    <glyph glyph-name="colon" unicode=":" horiz-adv-x="320" 
d="M227 426q-27 -27 -66.5 -27t-66.5 27t-27 66.5t27 66.5t66.5 27t66.5 -27t27 -66.5t-27 -66.5zM227 27q-27 -27 -66.5 -27t-66.5 27t-27 66.5t27 66.5t66.5 27t66.5 -27t27 -66.5t-27 -66.5z" />
    <glyph glyph-name="semicolon" unicode=";" horiz-adv-x="372" 
d="M261 426q-27 -27 -66.5 -27t-66.5 27t-27 66.5t27 66.5t66.5 27t66.5 -27t27 -66.5t-27 -66.5zM113 106h141q44 -101 22 -190q-10 -44 -46.5 -72t-95.5 -28v65q27 0 39.5 12t12.5 44v16h-73v153z" />
    <glyph glyph-name="less" unicode="&#x3c;" horiz-adv-x="553" 
d="M278 350l204 -221h-214l-204 221l204 221h214z" />
    <glyph glyph-name="equal" unicode="=" horiz-adv-x="780" 
d="M110 400v154h560v-154h-560zM110 145v154h560v-154h-560z" />
    <glyph glyph-name="greater" unicode="&#x3e;" horiz-adv-x="560" 
d="M64 129l204 221l-204 221h214l204 -221l-204 -221h-214z" />
    <glyph glyph-name="question" unicode="?" horiz-adv-x="651" 
d="M197 27q-27 27 -27 66.5t27 66.5t66.5 27t66.5 -27t27 -66.5t-27 -66.5t-66.5 -27t-66.5 27zM150 699.5q62 61.5 171 61.5t176 -58t67 -160.5t-57.5 -148t-166.5 -47.5v-95h-161v206h67q78 0 115 18t37 69q0 34 -19.5 55t-54 21t-54 -20.5t-19.5 -55.5h-161
q-2 93 60 154.5z" />
    <glyph glyph-name="at" unicode="@" horiz-adv-x="1277" 
d="M35 231q0 131 55 242t148.5 185t219 115t265.5 41q235 0 377 -121t142 -335q0 -154 -98 -259.5t-226 -105.5q-143 0 -162 123q-70 -123 -194 -123q-100 0 -165.5 81t-49 206t109.5 204t215 79t189 -67.5t52 -185.5l-16 -122q-6 -47 33 -47q44 0 91 60.5t47 157.5
q0 146 -99 234t-266 88q-141 0 -254.5 -60t-176.5 -163t-63 -227q0 -165 105.5 -264.5t306.5 -99.5l-33 -133q-252 0 -402.5 137t-150.5 360zM648 416q-46 0 -86 -36t-48.5 -102t21.5 -101.5t76.5 -35.5t86.5 36t48 102q9 66 -21.5 101.5t-76.5 35.5z" />
    <glyph glyph-name="A" unicode="A" horiz-adv-x="713" 
d="M521 0l-39 118h-252l-39 -118h-182l244 704h208l243 -704h-183zM273 248h166l-83 250z" />
    <glyph glyph-name="B" unicode="B" horiz-adv-x="674" 
d="M75 702h305q107 0 170.5 -52t63.5 -132q0 -119 -139 -161q71 -10 113 -59t42 -115q0 -84 -61.5 -133.5t-171.5 -49.5h-322v702zM246 572v-152h112q37 0 59.5 19t22.5 56.5t-22.5 57t-59.5 19.5h-112zM246 130h129q35 0 58 21t23 58t-22 59t-57 22h-131v-160z" />
    <glyph glyph-name="C" unicode="C" horiz-adv-x="764" 
d="M34 353q0 156 104.5 257.5t255.5 101.5q117 0 208 -62t127 -172h-204q-40 77 -128 77t-138.5 -55t-50.5 -147t50.5 -147t138.5 -55t128 77h204q-36 -110 -127 -172t-208 -62q-151 0 -255.5 101.5t-104.5 257.5z" />
    <glyph glyph-name="D" unicode="D" horiz-adv-x="739" 
d="M246 130h76q98 0 154 60t56 161t-56 161t-154 60h-76v-442zM322 702q168 0 276 -97.5t108 -253t-108 -253.5t-276 -98h-247v702h247z" />
    <glyph glyph-name="E" unicode="E" horiz-adv-x="572" 
d="M500 704v-130h-254v-151h224v-130h-224v-163h254v-130h-425v704h425z" />
    <glyph glyph-name="F" unicode="F" horiz-adv-x="575" 
d="M75 0v702h457v-130h-286v-151h214v-130h-214v-291h-171z" />
    <glyph glyph-name="G" unicode="G" horiz-adv-x="764" 
d="M34 353q0 156 104.5 257.5t255.5 101.5q117 0 208 -62t127 -172h-204q-40 77 -128 77t-138.5 -55t-50.5 -147t50.5 -147t135.5 -55q61 0 99.5 30.5t51.5 81.5h-198v130h382v-130q-19 -96 -105 -179q-41 -40 -101.5 -65t-128.5 -25q-151 0 -255.5 101.5t-104.5 257.5z" />
    <glyph glyph-name="H" unicode="H" horiz-adv-x="763" 
d="M517 702h171v-702h-171v291h-271v-291h-171v702h171v-281h271v281z" />
    <glyph glyph-name="I" unicode="I" horiz-adv-x="321" 
d="M75 0v702h171v-702h-171z" />
    <glyph glyph-name="J" unicode="J" horiz-adv-x="594" 
d="M323 224v478h171v-478q0 -109 -65.5 -170t-167.5 -61t-167 60.5t-65 170.5h170q1 -40 18 -59t44 -19t44.5 19t17.5 59z" />
    <glyph glyph-name="K" unicode="K" horiz-adv-x="720" 
d="M246 0h-171v702h171v-308l232 308h224l-289 -351l289 -351h-220l-236 310v-310z" />
    <glyph glyph-name="L" unicode="L" horiz-adv-x="479" 
d="M75 702h171v-572h213v-130h-384v702z" />
    <glyph glyph-name="M" unicode="M" horiz-adv-x="945" 
d="M870 702v-702h-171v396l-163 -396h-127l-163 396v-396h-171v702h196l202 -484l201 484h196z" />
    <glyph glyph-name="N" unicode="N" horiz-adv-x="778" 
d="M532 704h171v-704h-171l-286 443v-443h-171v704h171l286 -443v443z" />
    <glyph glyph-name="O" unicode="O" horiz-adv-x="788" 
d="M579 353q0 92 -50.5 147t-135 55t-135 -55t-50.5 -147t50.5 -147t135 -55t135 55t50.5 147zM34 353q0 156 104.5 257.5t256 101.5t255 -101.5t103.5 -257.5t-104 -258t-255 -102t-255.5 102t-104.5 258z" />
    <glyph glyph-name="P" unicode="P" horiz-adv-x="638" 
d="M610 487q0 -71 -51 -137q-27 -34 -80.5 -55.5t-126.5 -21.5h-106v-273h-171v702h277q122 0 190 -63t68 -152zM246 403h106q39 0 61.5 23t22.5 60.5t-23 61.5t-61 24h-106v-169z" />
    <glyph glyph-name="Q" unicode="Q" horiz-adv-x="794" 
d="M394 -7q-151 0 -255.5 102t-104.5 258t104.5 257.5t256 101.5t255 -101.5t103.5 -257.5q0 -88 -35.5 -161.5t-97.5 -122.5l143 -184h-207l-85 116q-40 -8 -77 -8zM208 353q0 -92 50.5 -147t135 -55t135 55t50.5 147t-50.5 147t-135 55t-135 -55t-50.5 -147z" />
    <glyph glyph-name="R" unicode="R" horiz-adv-x="668" 
d="M246 273v-273h-171v702h277q122 0 190 -63t68 -152q0 -61 -37 -119t-121 -82l172 -286h-200l-158 273h-20zM246 572v-169h106q39 0 61.5 23t22.5 60.5t-23 61.5t-61 24h-106z" />
    <glyph glyph-name="S" unicode="S" horiz-adv-x="647" 
d="M260.5 560q-20.5 -17 -20.5 -49t19 -51.5t49.5 -30t68 -20t74.5 -23t67.5 -33.5t49.5 -56.5t19 -87.5q0 -89 -72.5 -152.5t-191 -63.5t-191 57t-72.5 162h182q7 -84 86 -84q37 0 58 19.5t21 49.5t-19 49t-49.5 30t-68 20.5t-74.5 23.5t-67.5 33.5t-49.5 56t-19 86.5
q0 98 73 157t186.5 59t183.5 -51.5t73 -162.5h-186q-4 38 -24.5 58.5t-52.5 20.5t-52.5 -17z" />
    <glyph glyph-name="T" unicode="T" horiz-adv-x="608" 
d="M27 572v130h554v-130h-192v-572h-171v572h-191z" />
    <glyph glyph-name="U" unicode="U" horiz-adv-x="731" 
d="M72 283v419h171v-419q0 -63 31 -97t91 -34t92 34t32 97v419h171v-419q0 -93 -43.5 -160.5t-110 -98.5t-144.5 -31q-122 0 -206 76t-84 214z" />
    <glyph glyph-name="V" unicode="V" horiz-adv-x="726" 
d="M256 0l-249 702h182l174 -535l174 535h182l-249 -702h-214z" />
    <glyph glyph-name="W" unicode="W" horiz-adv-x="1045" 
d="M854 702h184l-196 -702h-196l-123 445l-122 -445h-196l-199 702h183l122 -505l125 505h194l120 -497z" />
    <glyph glyph-name="X" unicode="X" horiz-adv-x="736" 
d="M687 702l-222 -352l221 -350h-194l-129 204l-119 -204h-194l221 351l-221 351h194l129 -205l120 205h194z" />
    <glyph glyph-name="Y" unicode="Y" horiz-adv-x="687" 
d="M429 0h-171v226l-243 476h194l135 -317l134 317h194l-243 -476v-226z" />
    <glyph glyph-name="Z" unicode="Z" horiz-adv-x="596" 
d="M546 702v-130l-299 -442h299v-130h-496v130l299 442h-299v130h496z" />
    <glyph glyph-name="bracketleft" unicode="[" horiz-adv-x="510" 
d="M120 -188v1138h300v-139h-140v-860h140v-139h-300z" />
    <glyph glyph-name="backslash" unicode="\" horiz-adv-x="802" 
d="M348 950l268 -1137h-165l-268 1137h165z" />
    <glyph glyph-name="bracketright" unicode="]" horiz-adv-x="508" 
d="M389 950v-1138h-300v139h140v860h-140v139h300z" />
    <glyph glyph-name="asciicircum" unicode="^" horiz-adv-x="709" 
d="M507 165l-152 341l-153 -341h-172l242 539h166l241 -539h-172z" />
    <glyph glyph-name="underscore" unicode="_" horiz-adv-x="780" 
d="M85 -205v164h620v-164h-620z" />
    <glyph glyph-name="grave" unicode="`" horiz-adv-x="291" 
d="M10 697v133l241 -116v-118z" />
    <glyph glyph-name="a" unicode="a" horiz-adv-x="698" 
d="M452 279q0 66 -37 101.5t-85 35.5t-85 -36t-37 -102t37 -101.5t85 -35.5t85 36t37 102zM34 278q0 125 74 205.5t180.5 80.5t163.5 -79v73h171v-558h-171v81q-62 -88 -166 -88t-178 80t-74 205z" />
    <glyph glyph-name="b" unicode="b" horiz-adv-x="698" 
d="M490 278q0 66 -37 102t-85 36t-85 -35.5t-37 -101.5t37 -102t85 -36t85 35.5t37 101.5zM246 485q57 79 163.5 79t180.5 -80.5t74 -205.5t-74 -205t-179 -80t-165 88v-81h-171v740h171v-255z" />
    <glyph glyph-name="c" unicode="c" horiz-adv-x="600" 
d="M34 279q0 130 77.5 207.5t200.5 77.5q102 0 173 -50.5t94 -144.5h-185q-24 50 -78.5 50t-81 -38.5t-26.5 -101.5t26.5 -101.5t77.5 -38.5q32 0 50 11t32 39h185q-23 -90 -95 -143t-172 -53q-123 0 -200.5 78t-77.5 208z" />
    <glyph glyph-name="d" unicode="d" horiz-adv-x="698" 
d="M452 279q0 66 -37 101.5t-85 35.5t-85 -36t-37 -102t37 -101.5t85 -35.5t85 36t37 102zM34 278q0 125 74 205.5t180.5 80.5t163.5 -79v255h171v-740h-171v81q-62 -88 -166 -88t-178 80t-74 205z" />
    <glyph glyph-name="e" unicode="e" horiz-adv-x="632" 
d="M312 -7q-122 0 -200 78.5t-78 208.5t77.5 207t200.5 77t204 -76t81 -211q0 -29 -4 -54h-384q5 -37 33 -60.5t60.5 -23.5t48.5 6.5t23.5 13t19.5 21.5h185q-24 -84 -96 -135.5t-171 -51.5zM385 393.5q-30 24.5 -71 24.5t-69 -24.5t-35 -63.5h209q-4 39 -34 63.5z" />
    <glyph glyph-name="f" unicode="f" horiz-adv-x="336" 
d="M319 558v-142h-71v-416h-171v416h-52v142h52v21q0 106 56.5 155t177.5 49v-145q-34 0 -48.5 -13t-14.5 -46v-21h71z" />
    <glyph glyph-name="g" unicode="g" horiz-adv-x="698" 
d="M34 278q0 125 74 205.5t180.5 80.5t163.5 -79v73h171v-555q0 -117 -64 -195q-32 -40 -87.5 -62t-128.5 -22q-128 0 -203 52t-85 159h168q24 -63 120 -63q47 0 78 31.5t31 99.5v78q-62 -88 -166 -88t-178 80t-74 205zM452 279q0 66 -37 101.5t-85 35.5t-85 -36t-37 -102
t37 -101.5t85 -35.5t85 36t37 102z" />
    <glyph glyph-name="h" unicode="h" horiz-adv-x="700" 
d="M246 740v-264q53 88 169 88q96 0 155.5 -64t59.5 -174v-326h-170v303q0 54 -28.5 83.5t-78.5 29.5t-78.5 -29.5t-28.5 -83.5v-303h-171v740h171z" />
    <glyph glyph-name="i" unicode="i" horiz-adv-x="321" 
d="M160 592q-42 0 -71 29t-29 71.5t29 71.5t71 29t71 -29t29 -71.5t-29 -71.5t-71 -29zM75 0v558h171v-558h-171z" />
    <glyph glyph-name="j" unicode="j" horiz-adv-x="321" 
d="M75 558h171v-640q0 -101 -51.5 -142.5t-145.5 -41.5h-67v145h41q52 0 52 39v640zM160 592q-42 0 -71 29t-29 71.5t29 71.5t71 29t71 -29t29 -71.5t-29 -71.5t-71 -29z" />
    <glyph glyph-name="k" unicode="k" horiz-adv-x="653" 
d="M246 0h-171v740h171v-415l173 233h230l-239 -285l239 -273h-227l-176 223v-223z" />
    <glyph glyph-name="l" unicode="l" horiz-adv-x="321" 
d="M75 0v740h171v-740h-171z" />
    <glyph glyph-name="m" unicode="m" horiz-adv-x="1084" 
d="M246 558v-82q53 88 169 88q62 0 110.5 -28t75.5 -80q31 49 80.5 78.5t110.5 29.5q102 0 162 -63t60 -175v-326h-170v303q0 54 -28.5 83.5t-78.5 29.5t-78.5 -29.5t-28.5 -83.5v-303h-170v303q0 54 -28.5 83.5t-78.5 29.5t-78.5 -29.5t-28.5 -83.5v-303h-171v558h171z" />
    <glyph glyph-name="n" unicode="n" horiz-adv-x="700" 
d="M246 558v-82q53 88 169 88q96 0 155.5 -64t59.5 -174v-326h-170v303q0 54 -28.5 83.5t-78.5 29.5t-78.5 -29.5t-28.5 -83.5v-303h-171v558h171z" />
    <glyph glyph-name="o" unicode="o" horiz-adv-x="653" 
d="M444 279q0 68 -35 103.5t-83 35.5t-82.5 -35.5t-34.5 -103.5t35.5 -104t83.5 -36t82 36t34 104zM35 280q0 129 84 206.5t208 77.5t207.5 -77.5t83.5 -206.5t-83 -208t-207 -79t-208.5 79t-84.5 208z" />
    <glyph glyph-name="p" unicode="p" horiz-adv-x="698" 
d="M490 278q0 66 -37 102t-85 36t-85 -35.5t-37 -101.5t37 -102t85 -36t85 35.5t37 101.5zM246 485q57 79 163.5 79t180.5 -80.5t74 -205.5t-74 -205t-179 -80t-165 88v-347h-171v824h171v-73z" />
    <glyph glyph-name="q" unicode="q" horiz-adv-x="698" 
d="M452 279q0 66 -37 101.5t-85 35.5t-85 -36t-37 -102t37 -101.5t85 -35.5t85 36t37 102zM34 278q0 125 74 205.5t180.5 80.5t163.5 -79v73h171v-824h-171v347q-62 -88 -166 -88t-178 80t-74 205z" />
    <glyph glyph-name="r" unicode="r" horiz-adv-x="424" 
d="M246 558v-104q60 110 160 110v-174h-42q-59 0 -88.5 -28t-29.5 -98v-264h-171v558h171z" />
    <glyph glyph-name="s" unicode="s" horiz-adv-x="555" 
d="M37 390q0 74 63 124t170.5 50t173.5 -49t70 -134h-175q-3 29 -20 39.5t-51 10.5q-67 0 -67 -41q0 -37 82 -51q83 -14 151 -43q35 -14 58.5 -46.5t23.5 -79.5q0 -78 -67 -127.5t-169 -49.5t-170 46.5t-74 137.5h175q7 -51 72 -51q30 0 49.5 14t19.5 36t-32.5 35t-78.5 22
t-92.5 22.5t-79 47t-32.5 87.5z" />
    <glyph glyph-name="t" unicode="t" horiz-adv-x="415" 
d="M312 145h61v-145h-87q-94 0 -145.5 41.5t-51.5 142.5v232h-52v142h52v136h171v-136h112v-142h-112v-232q0 -39 52 -39z" />
    <glyph glyph-name="u" unicode="u" horiz-adv-x="700" 
d="M454 558h171v-558h-171v82q-53 -88 -169 -88q-96 0 -155.5 64t-59.5 174v326h170v-303q0 -54 28.5 -83.5t78.5 -29.5t78.5 29.5t28.5 83.5v303z" />
    <glyph glyph-name="v" unicode="v" horiz-adv-x="626" 
d="M4 558h182l127 -415l127 415h182l-198 -558h-222z" />
    <glyph glyph-name="w" unicode="w" horiz-adv-x="866" 
d="M702 558h161l-167 -558h-184l-78 330l-79 -330h-184l-167 558h171l87 -392l86 392h181l86 -392z" />
    <glyph glyph-name="x" unicode="x" horiz-adv-x="549" 
d="M546 558l-180 -270l180 -288h-192l-91 145l-90 -145h-169l181 270l-181 288h192l91 -145l90 145h169z" />
    <glyph glyph-name="y" unicode="y" horiz-adv-x="641" 
d="M221 11l-217 547h194l124 -365l136 365h179l-356 -824h-179z" />
    <glyph glyph-name="z" unicode="z" horiz-adv-x="515" 
d="M465 558v-141l-214 -276h214v-141h-415v141l214 276h-214v141h415z" />
    <glyph glyph-name="braceleft" unicode="{" horiz-adv-x="527" 
d="M345 252q0 -31 -8 -92t-8 -99q0 -99 38 -169.5t98 -92.5v-16h-174q-40 19 -72 57q-60 73 -60 204q0 36 8.5 98t8.5 99.5t-22.5 68.5t-74.5 32v60q52 1 74.5 32t22.5 68.5t-8.5 99.5t-8.5 112.5t14.5 101t38.5 78.5q39 48 79 67h174v-16q-60 -22 -98 -92.5t-38 -169.5
q0 -38 8 -99t8 -92q0 -99 -106 -119v-2q106 -20 106 -119z" />
    <glyph glyph-name="bar" unicode="|" horiz-adv-x="381" 
d="M105 815h171v-944h-171v944z" />
    <glyph glyph-name="braceright" unicode="}" horiz-adv-x="511" 
d="M183 492q0 31 8 92t8 99q0 99 -38 169.5t-98 92.5v16h174q40 -19 72 -57q60 -73 60 -204q0 -36 -8.5 -98t-8.5 -99.5t22.5 -68.5t74.5 -32v-60q-52 -1 -74.5 -32t-22.5 -68.5t8.5 -99.5t8.5 -112.5t-14.5 -101t-38.5 -78.5q-39 -48 -79 -67h-174v16q60 22 98 92.5
t38 169.5q0 38 -8 99t-8 92q0 99 106 119v2q-106 20 -106 119z" />
    <glyph glyph-name="asciitilde" unicode="~" horiz-adv-x="631" 
d="M224 425q48 0 107.5 -33t84.5 -33q54 0 63 66h122q-35 -217 -195 -217q-48 0 -107 33t-85 33q-54 0 -64 -66h-120q35 217 194 217z" />
    <glyph glyph-name="uni00A0" unicode="&#xa0;" horiz-adv-x="300" 
 />
    <glyph glyph-name="exclamdown" unicode="&#xa1;" horiz-adv-x="448" 
d="M129 -188l20 500h145l20 -500h-185zM159 537q27 27 66.5 27t66.5 -27t27 -66.5t-27 -66.5t-66.5 -27t-66.5 27t-27 66.5t27 66.5z" />
    <glyph glyph-name="cent" unicode="&#xa2;" horiz-adv-x="630" 
d="M327 379q-52 0 -80.5 -32.5t-28.5 -90.5t28.5 -90.5t80.5 -32.5q76 0 91 57h157q-4 -80 -62.5 -131.5t-147.5 -61.5v-82h-79v82q-112 11 -171.5 80t-59.5 179t59.5 179t171.5 80v82h79v-82q89 -10 147.5 -61.5t62.5 -131.5h-157q-15 57 -91 57z" />
    <glyph glyph-name="sterling" unicode="&#xa3;" horiz-adv-x="663" 
d="M588 130v-134h-510l-24 84q47 42 69 89t22 116v2h-109v115h79q-17 62 -17 114q0 114 67 172.5t182.5 58.5t176 -64.5t60.5 -162.5h-157q0 87 -82 87q-85 0 -85 -98q0 -46 19 -107h184v-115h-156v-3q0 -95 -66 -154h347z" />
    <glyph glyph-name="currency" unicode="&#xa4;" horiz-adv-x="577" 
d="M461 485q34 -43 34 -106t-33 -107l55 -55l-66 -67l-64 64q-42 -18 -98 -18t-98 19l-65 -65l-66 67l55 55q-33 46 -33 108t34 105l-56 56l66 67l67 -67q43 17 96 17t95 -17l67 67l66 -67zM236.5 311.5q22.5 -22.5 53 -22.5t52 22.5t21.5 65.5t-22 66t-52.5 23t-52.5 -23
t-22 -66t22.5 -65.5z" />
    <glyph glyph-name="yen" unicode="&#xa5;" horiz-adv-x="687" 
d="M629 425v-115h-157l-29 -56h186v-115h-200v-139h-171v139h-200v115h186l-29 56h-157v115h98l-141 277h194l135 -317l134 317h194l-141 -277h98z" />
    <glyph glyph-name="brokenbar" unicode="&#xa6;" horiz-adv-x="381" 
d="M276 405h-171v410h171v-410zM105 281h171v-410h-171v410z" />
    <glyph glyph-name="section" unicode="&#xa7;" horiz-adv-x="587" 
d="M521 523h-177q-6 73 -54.5 73t-48.5 -52q0 -32 29.5 -54t116 -59t128.5 -81.5t42 -105.5q0 -97 -101 -154q65 -53 65 -128.5t-63 -130.5t-165 -55t-164.5 49t-62.5 140h177q6 -73 54.5 -73t48.5 52q0 32 -29.5 54t-116 59t-128.5 81.5t-42 105.5q0 103 100 154
q-64 53 -64 128.5t63 130.5t165 55t164.5 -49t62.5 -140zM294 166q38 0 60.5 22.5t22.5 55.5t-22.5 55.5t-60.5 22.5t-60.5 -22.5t-22.5 -55.5t22.5 -55.5t60.5 -22.5z" />
    <glyph glyph-name="dieresis" unicode="&#xa8;" horiz-adv-x="367" 
d="M283 620q-31 0 -52 21t-21 52t21 52.5t52 21.5t52.5 -21.5t21.5 -52.5t-21.5 -52t-52.5 -21zM83 620q-31 0 -52 21t-21 52t21 52.5t52 21.5t52.5 -21.5t21.5 -52.5t-21.5 -52t-52.5 -21z" />
    <glyph glyph-name="copyright" unicode="&#xa9;" horiz-adv-x="788" 
d="M746 353q0 -159 -98 -259.5t-254 -100.5t-254 100.5t-98 259.5t98 259t254 100t254 -100t98 -259zM180.5 574.5q-78.5 -82.5 -78.5 -221t79 -222t213 -83.5t213 83.5t79 222t-78.5 221t-213.5 82.5t-213.5 -82.5zM388 127q-98 0 -159 61.5t-61 164.5t61 164t150.5 61
t145.5 -40t74 -114h-146q-19 39 -62 39t-64 -30t-21 -80t21 -80.5t61 -30.5q25 0 39.5 8.5t25.5 30.5h146q-18 -71 -75 -112.5t-136 -41.5z" />
    <glyph glyph-name="ordfeminine" unicode="&#xaa;" horiz-adv-x="469" 
d="M310 528q0 42 -23 64t-54 22t-53.5 -23t-22.5 -64.5t22.5 -63.5t53.5 -22t54 22.5t23 64.5zM25 528q0 79 50.5 130t125.5 51t109 -55v50h129v-352h-129v50q-34 -55 -109 -55t-125.5 51t-50.5 130z" />
    <glyph glyph-name="guillemotleft" unicode="&#xab;" horiz-adv-x="557" 
d="M420 295l87 -175h-158l-84 175l84 175h158zM200 295l87 -175h-158l-84 175l84 175h158z" />
    <glyph glyph-name="logicalnot" unicode="&#xac;" horiz-adv-x="772" 
d="M30 312v130h682v-262h-171v132h-511z" />
    <glyph glyph-name="uni00AD" unicode="&#xad;" horiz-adv-x="580" 
d="M70 280v142h440v-142h-440z" />
    <glyph glyph-name="registered" unicode="&#xae;" horiz-adv-x="788" 
d="M410 712q164 0 266 -100t102 -259t-102 -259.5t-266 -100.5t-266 100.5t-102 259.5t102 259t266 100zM410 48q142 0 225 83.5t83 222t-83 221t-225 82.5t-225 -82.5t-83 -221t83 -222t225 -83.5zM260 577h172q76 0 118 -39.5t42 -94.5q0 -38 -23 -73.5t-75 -50.5
l106 -178h-124l-98 170h-12v-170h-106v436zM366 496v-105h66q24 0 38 14.5t14 38t-14 38t-38 14.5h-66z" />
    <glyph glyph-name="macron" unicode="&#xaf;" horiz-adv-x="420" 
d="M10 628v118h400v-118h-400z" />
    <glyph glyph-name="degree" unicode="&#xb0;" horiz-adv-x="463" 
d="M306 528q0 43 -22 66t-52.5 23t-52.5 -23t-22 -66t22.5 -65.5t53 -22.5t52 22.5t21.5 65.5zM83 397q-58 50 -58 132.5t57 131t150 48.5t149.5 -48.5t56.5 -131.5t-56.5 -132.5t-148.5 -49.5t-150 50z" />
    <glyph glyph-name="plusminus" unicode="&#xb1;" horiz-adv-x="650" 
d="M580 356h-173v-93h173v-154h-510v154h173v93h-173v154h173v105h164v-105h173v-154z" />
    <glyph glyph-name="uni00B2" unicode="&#xb2;" horiz-adv-x="383" 
d="M348 452v-100h-309v101l122 75q56 34 56 64t-25 30t-25 -30h-130q0 56 44 89t117 33t114 -34.5t41 -74t-23 -63t-78 -51.5l-78 -39h174z" />
    <glyph glyph-name="uni00B3" unicode="&#xb3;" horiz-adv-x="374" 
d="M21 592q0 53 44.5 87.5t118.5 34.5t116.5 -33t42.5 -78q0 -54 -58 -70v-3q64 -25 64 -81q0 -46 -48 -73.5t-119 -27.5t-119 33t-48 89h130q5 -31 35 -31q13 0 21.5 8t8.5 21t-9.5 21t-25.5 8h-22v77h16q34 0 34 24.5t-28 24.5q-16 0 -25 -9t-9 -22h-120z" />
    <glyph glyph-name="acute" unicode="&#xb4;" horiz-adv-x="261" 
d="M10 714l241 116v-133l-241 -101v118z" />
    <glyph glyph-name="mu" unicode="&#xb5;" horiz-adv-x="705" 
d="M459 558h171v-558h-171v82q-53 -88 -169 -88q-17 0 -45 4v-264h-170v824h170v-303q0 -54 28.5 -83.5t78.5 -29.5t78.5 29.5t28.5 83.5v303z" />
    <glyph glyph-name="paragraph" unicode="&#xb6;" horiz-adv-x="708" 
d="M266 702h367v-702h-141v572h-62v-572h-141v273h-23q-119 0 -178.5 61.5t-59.5 152.5t59.5 153t178.5 62z" />
    <glyph glyph-name="periodcentered" unicode="&#xb7;" horiz-adv-x="277" 
d="M205 257q-27 -27 -66.5 -27t-66.5 27t-27 66.5t27 66.5t66.5 27t66.5 -27t27 -66.5t-27 -66.5z" />
    <glyph glyph-name="cedilla" unicode="&#xb8;" horiz-adv-x="313" 
d="M181 -147q0 25 -23 25h-88v129h103v-44q55 0 92.5 -27t37.5 -83.5t-38.5 -87.5t-91.5 -31h-163v93h111t41.5 1t6.5 2t5.5 3t3.5 5q3 3 3 15z" />
    <glyph glyph-name="uni00B9" unicode="&#xb9;" horiz-adv-x="249" 
d="M80 352v253h-60v99h189v-352h-129z" />
    <glyph glyph-name="ordmasculine" unicode="&#xba;" horiz-adv-x="463" 
d="M306 528q0 43 -22 66t-52.5 23t-52.5 -23t-22 -66t22.5 -65.5t53 -22.5t52 22.5t21.5 65.5zM83 397q-58 50 -58 132.5t57 131t150 48.5t149.5 -48.5t56.5 -131.5t-56.5 -132.5t-148.5 -49.5t-150 50z" />
    <glyph glyph-name="guillemotright" unicode="&#xbb;" horiz-adv-x="557" 
d="M208 120h-158l87 175l-87 175h158l84 -175zM428 120h-158l87 175l-87 175h158l84 -175z" />
    <glyph glyph-name="onequarter" unicode="&#xbc;" horiz-adv-x="786" 
d="M100 352v253h-60v99h189v-352h-129zM593 135v142l-78 -142h78zM716 135h40v-73h-40v-62h-129v62h-195v68l135 222h189v-217zM88 0l385 704h165l-385 -704h-165z" />
    <glyph glyph-name="onehalf" unicode="&#xbd;" horiz-adv-x="821" 
d="M757 99v-100h-309v101l122 75q56 34 56 64t-25 30t-25 -30h-130q0 56 44 89t117 33t114 -34.5t41 -74t-23 -63t-78 -51.5l-78 -39h174zM473 704h165l-385 -704h-165zM100 352v253h-60v99h189v-352h-129z" />
    <glyph glyph-name="threequarters" unicode="&#xbe;" horiz-adv-x="891" 
d="M56 592q0 53 44.5 87.5t118.5 34.5t116.5 -33t42.5 -78q0 -54 -58 -70v-3q64 -25 64 -81q0 -46 -48 -73.5t-119 -27.5t-119 33t-48 89h130q5 -31 35 -31q13 0 21.5 8t8.5 21t-9.5 21t-25.5 8h-22v77h16q34 0 34 24.5t-28 24.5q-16 0 -25 -9t-9 -22h-120zM708 135v142
l-78 -142h78zM831 135h40v-73h-40v-62h-129v62h-195v68l135 222h189v-217zM203 0l385 704h165l-385 -704h-165z" />
    <glyph glyph-name="questiondown" unicode="&#xbf;" horiz-adv-x="650" 
d="M454 537q27 -27 27 -66.5t-27 -66.5t-66.5 -27t-66.5 27t-27 66.5t27 66.5t66.5 27t66.5 -27zM501 -135.5q-62 -61.5 -171 -61.5t-176 58t-67 160.5t57.5 148t166.5 47.5v95h161v-206h-67q-78 0 -115 -18t-37 -69q0 -34 19.5 -55t54 -21t54 20.5t19.5 55.5h161
q2 -93 -60 -154.5z" />
    <glyph glyph-name="Agrave" unicode="&#xc0;" horiz-adv-x="713" 
d="M521 0l-39 118h-252l-39 -118h-182l244 704h208l243 -704h-183zM273 248h166l-83 250zM473 860v-118l-241 101v133z" />
    <glyph glyph-name="Aacute" unicode="&#xc1;" horiz-adv-x="713" 
d="M521 0l-39 118h-252l-39 -118h-182l244 704h208l243 -704h-183zM273 248h166l-83 250zM473 976v-133l-241 -101v118z" />
    <glyph glyph-name="Acircumflex" unicode="&#xc2;" horiz-adv-x="713" 
d="M521 0l-39 118h-252l-39 -118h-182l244 704h208l243 -704h-183zM273 248h166l-83 250zM512 740l-155 87l-155 -87v118l155 84l155 -84v-118z" />
    <glyph glyph-name="Atilde" unicode="&#xc3;" horiz-adv-x="713" 
d="M521 0l-39 118h-252l-39 -118h-182l244 704h208l243 -704h-183zM273 248h166l-83 250zM419 756q-33 0 -73 22.5t-58 22.5q-37 0 -44 -45h-82q24 148 133 148q33 0 73 -22.5t58 -22.5q37 0 43 45h83q-24 -148 -133 -148z" />
    <glyph glyph-name="Adieresis" unicode="&#xc4;" horiz-adv-x="713" 
d="M521 0l-39 118h-252l-39 -118h-182l244 704h208l243 -704h-183zM273 248h166l-83 250zM256 766q-31 0 -52 21t-21 52t21 52.5t52.5 21.5t52.5 -21.5t21 -52.5t-21.5 -52t-52.5 -21zM456 766q-31 0 -52 21t-21 52t21 52.5t52.5 21.5t52.5 -21.5t21 -52.5t-21.5 -52
t-52.5 -21z" />
    <glyph glyph-name="Aring" unicode="&#xc5;" horiz-adv-x="713" 
d="M521 0l-39 118h-252l-39 -118h-182l244 704h208l243 -704h-183zM273 248h166l-83 250zM357 745q-52 0 -86.5 33t-34.5 88t34.5 88t86.5 33t86.5 -33t34.5 -88t-34.5 -88t-86.5 -33zM357 915q-21 0 -34.5 -13.5t-13.5 -34.5t13.5 -35t34.5 -14t35 14t14 35t-14 34.5
t-35 13.5z" />
    <glyph glyph-name="AE" unicode="&#xc6;" horiz-adv-x="982" 
d="M910 574h-254v-151h224v-130h-224v-163h254v-130h-425v118h-232l-58 -118h-186l355 704h546v-130zM485 248v344l-169 -344h169z" />
    <glyph glyph-name="Ccedilla" unicode="&#xc7;" horiz-adv-x="764" 
d="M449 -147q0 25 -23 25h-88v120q-132 19 -218 116.5t-86 246t104.5 250t255.5 101.5q117 0 208 -62t127 -172h-204q-40 77 -128 77t-138.5 -55t-50.5 -147t50.5 -147t138.5 -55t128 77h204q-32 -99 -109 -159.5t-179 -71.5v-34q55 0 92.5 -27t37.5 -83.5t-38.5 -87.5
t-91.5 -31h-163v93h111t41.5 1t6.5 2t5.5 3t3.5 5q3 3 3 15z" />
    <glyph glyph-name="Egrave" unicode="&#xc8;" horiz-adv-x="572" 
d="M161 843v133l241 -116v-118zM500 704v-130h-254v-151h224v-130h-224v-163h254v-130h-425v704h425z" />
    <glyph glyph-name="Eacute" unicode="&#xc9;" horiz-adv-x="572" 
d="M500 704v-130h-254v-151h224v-130h-224v-163h254v-130h-425v704h425zM161 860l241 116v-133l-241 -101v118z" />
    <glyph glyph-name="Ecircumflex" unicode="&#xca;" horiz-adv-x="572" 
d="M500 704v-130h-254v-151h224v-130h-224v-163h254v-130h-425v704h425zM441 858v-118l-155 87l-155 -87v118l155 84z" />
    <glyph glyph-name="Edieresis" unicode="&#xcb;" horiz-adv-x="572" 
d="M500 704v-130h-254v-151h224v-130h-224v-163h254v-130h-425v704h425zM385 766q-31 0 -52 21t-21 52t21 52.5t52 21.5t52.5 -21.5t21.5 -52.5t-21.5 -52t-52.5 -21zM185 766q-31 0 -52 21t-21 52t21 52.5t52 21.5t52.5 -21.5t21.5 -52.5t-21.5 -52t-52.5 -21z" />
    <glyph glyph-name="Igrave" unicode="&#xcc;" horiz-adv-x="321" 
d="M36 843v133l241 -116v-118zM75 0v702h171v-702h-171z" />
    <glyph glyph-name="Iacute" unicode="&#xcd;" horiz-adv-x="321" 
d="M36 860l241 116v-133l-241 -101v118zM75 0v702h171v-702h-171z" />
    <glyph glyph-name="Icircumflex" unicode="&#xce;" horiz-adv-x="321" 
d="M316 858v-118l-155 87l-155 -87v118l155 84zM75 0v702h171v-702h-171z" />
    <glyph glyph-name="Idieresis" unicode="&#xcf;" horiz-adv-x="321" 
d="M260 766q-31 0 -52 21t-21 52t21 52.5t52.5 21.5t52.5 -21.5t21 -52.5t-21.5 -52t-52.5 -21zM60 766q-31 0 -52 21t-21 52t21 52.5t52.5 21.5t52.5 -21.5t21 -52.5t-21.5 -52t-52.5 -21zM75 0v702h171v-702h-171z" />
    <glyph glyph-name="Eth" unicode="&#xd0;" horiz-adv-x="739" 
d="M75 702h247q168 0 276 -97.5t108 -253t-108 -253.5t-276 -98h-247v269h-55v164h55v269zM246 130h76q98 0 154 60t56 161t-56 161t-154 60h-76v-139h145v-164h-145v-139z" />
    <glyph glyph-name="Ntilde" unicode="&#xd1;" horiz-adv-x="778" 
d="M327 904q33 0 73 -22.5t58 -22.5q37 0 43 45h83q-24 -148 -133 -148q-33 0 -73 22.5t-58 22.5q-37 0 -44 -45h-82q24 148 133 148zM532 704h171v-704h-171l-286 443v-443h-171v704h171l286 -443v443z" />
    <glyph glyph-name="Ograve" unicode="&#xd2;" horiz-adv-x="788" 
d="M269 843v133l241 -116v-118zM579 353q0 92 -50.5 147t-135 55t-135 -55t-50.5 -147t50.5 -147t135 -55t135 55t50.5 147zM34 353q0 156 104.5 257.5t256 101.5t255 -101.5t103.5 -257.5t-104 -258t-255 -102t-255.5 102t-104.5 258z" />
    <glyph glyph-name="Oacute" unicode="&#xd3;" horiz-adv-x="788" 
d="M579 353q0 92 -50.5 147t-135 55t-135 -55t-50.5 -147t50.5 -147t135 -55t135 55t50.5 147zM34 353q0 156 104.5 257.5t256 101.5t255 -101.5t103.5 -257.5t-104 -258t-255 -102t-255.5 102t-104.5 258zM269 860l241 116v-133l-241 -101v118z" />
    <glyph glyph-name="Ocircumflex" unicode="&#xd4;" horiz-adv-x="788" 
d="M579 353q0 92 -50.5 147t-135 55t-135 -55t-50.5 -147t50.5 -147t135 -55t135 55t50.5 147zM34 353q0 156 104.5 257.5t256 101.5t255 -101.5t103.5 -257.5t-104 -258t-255 -102t-255.5 102t-104.5 258zM549 858v-118l-155 87l-155 -87v118l155 84z" />
    <glyph glyph-name="Otilde" unicode="&#xd5;" horiz-adv-x="788" 
d="M332 904q32 0 73 -22.5t58 -22.5q37 0 43 45h83q-24 -148 -133 -148q-32 0 -73 22.5t-58 22.5q-37 0 -44 -45h-82q24 148 133 148zM579 353q0 92 -50.5 147t-135 55t-135 -55t-50.5 -147t50.5 -147t135 -55t135 55t50.5 147zM34 353q0 156 104.5 257.5t256 101.5
t255 -101.5t103.5 -257.5t-104 -258t-255 -102t-255.5 102t-104.5 258z" />
    <glyph glyph-name="Odieresis" unicode="&#xd6;" horiz-adv-x="788" 
d="M579 353q0 92 -50.5 147t-135 55t-135 -55t-50.5 -147t50.5 -147t135 -55t135 55t50.5 147zM34 353q0 156 104.5 257.5t256 101.5t255 -101.5t103.5 -257.5t-104 -258t-255 -102t-255.5 102t-104.5 258zM493 766q-31 0 -52 21t-21 52t21 52.5t52 21.5t52.5 -21.5
t21.5 -52.5t-21.5 -52t-52.5 -21zM293 766q-31 0 -52 21t-21 52t21 52.5t52 21.5t52.5 -21.5t21.5 -52.5t-21.5 -52t-52.5 -21z" />
    <glyph glyph-name="multiply" unicode="&#xd7;" horiz-adv-x="653" 
d="M576 217l-112 -111l-139 139l-137 -138l-111 110l138 138l-134 134l112 111l133 -133l132 133l111 -110l-133 -133z" />
    <glyph glyph-name="Oslash" unicode="&#xd8;" horiz-adv-x="788" 
d="M665 594q88 -99 88 -248t-104 -251t-255 -102q-120 0 -213 66l-54 -59h-104l100 111q-89 100 -89 249t104.5 250.5t255.5 101.5q120 0 214 -66l53 58h104zM394 555q-85 0 -135.5 -55t-50.5 -147q0 -68 29 -117l262 289q-43 30 -105 30zM394 151q84 0 134.5 55t50.5 147
q0 67 -28 115l-261 -288q44 -29 104 -29z" />
    <glyph glyph-name="Ugrave" unicode="&#xd9;" horiz-adv-x="731" 
d="M241 843v133l241 -116v-118zM72 283v419h171v-419q0 -63 31 -97t91 -34t92 34t32 97v419h171v-419q0 -93 -43.5 -160.5t-110 -98.5t-144.5 -31q-122 0 -206 76t-84 214z" />
    <glyph glyph-name="Uacute" unicode="&#xda;" horiz-adv-x="731" 
d="M72 283v419h171v-419q0 -63 31 -97t91 -34t92 34t32 97v419h171v-419q0 -93 -43.5 -160.5t-110 -98.5t-144.5 -31q-122 0 -206 76t-84 214zM241 860l241 116v-133l-241 -101v118z" />
    <glyph glyph-name="Ucircumflex" unicode="&#xdb;" horiz-adv-x="731" 
d="M72 283v419h171v-419q0 -63 31 -97t91 -34t92 34t32 97v419h171v-419q0 -93 -43.5 -160.5t-110 -98.5t-144.5 -31q-122 0 -206 76t-84 214zM521 858v-118l-155 87l-155 -87v118l155 84z" />
    <glyph glyph-name="Udieresis" unicode="&#xdc;" horiz-adv-x="731" 
d="M72 283v419h171v-419q0 -63 31 -97t91 -34t92 34t32 97v419h171v-419q0 -93 -43.5 -160.5t-110 -98.5t-144.5 -31q-122 0 -206 76t-84 214zM465 766q-31 0 -52 21t-21 52t21 52.5t52 21.5t52.5 -21.5t21.5 -52.5t-21.5 -52t-52.5 -21zM265 766q-31 0 -52 21t-21 52
t21 52.5t52 21.5t52.5 -21.5t21.5 -52.5t-21.5 -52t-52.5 -21z" />
    <glyph glyph-name="Yacute" unicode="&#xdd;" horiz-adv-x="687" 
d="M429 0h-171v226l-243 476h194l135 -317l134 317h194l-243 -476v-226zM460 976v-133l-241 -101v118z" />
    <glyph glyph-name="Thorn" unicode="&#xde;" horiz-adv-x="638" 
d="M610 352q0 -71 -51 -136q-27 -35 -80.5 -56.5t-126.5 -21.5h-106v-138h-171v704h167v-137h110q122 0 190 -63t68 -152zM246 268h106q39 0 61.5 23t22.5 60.5t-23 61.5t-61 24h-106v-169z" />
    <glyph glyph-name="germandbls" unicode="&#xdf;" horiz-adv-x="746" 
d="M725 206q0 -92 -64 -152.5t-155.5 -60.5t-149.5 55.5t-59 148.5h135q4 -27 20 -41.5t39.5 -14.5t41.5 20t18 45q0 42 -60 75l-150 84v70l20 12q42 25 42 75q0 33 -22 56.5t-55.5 23.5t-57 -24t-23.5 -65l1 -513h-171v513q0 111 69 174t188.5 63t182.5 -54t63 -125.5
t-72 -115.5l79 -45q76 -42 108 -88.5t32 -115.5z" />
    <glyph glyph-name="agrave" unicode="&#xe0;" horiz-adv-x="698" 
d="M224 697v133l241 -116v-118zM452 279q0 66 -37 101.5t-85 35.5t-85 -36t-37 -102t37 -101.5t85 -35.5t85 36t37 102zM34 278q0 125 74 205.5t180.5 80.5t163.5 -79v73h171v-558h-171v81q-62 -88 -166 -88t-178 80t-74 205z" />
    <glyph glyph-name="aacute" unicode="&#xe1;" horiz-adv-x="698" 
d="M224 714l241 116v-133l-241 -101v118zM452 279q0 66 -37 101.5t-85 35.5t-85 -36t-37 -102t37 -101.5t85 -35.5t85 36t37 102zM34 278q0 125 74 205.5t180.5 80.5t163.5 -79v73h171v-558h-171v81q-62 -88 -166 -88t-178 80t-74 205z" />
    <glyph glyph-name="acircumflex" unicode="&#xe2;" horiz-adv-x="698" 
d="M504 712v-118l-155 87l-155 -87v118l155 84zM452 279q0 66 -37 101.5t-85 35.5t-85 -36t-37 -102t37 -101.5t85 -35.5t85 36t37 102zM34 278q0 125 74 205.5t180.5 80.5t163.5 -79v73h171v-558h-171v81q-62 -88 -166 -88t-178 80t-74 205z" />
    <glyph glyph-name="atilde" unicode="&#xe3;" horiz-adv-x="698" 
d="M287 758q33 0 73 -22.5t58 -22.5q37 0 43 45h83q-24 -148 -133 -148q-33 0 -73 22.5t-58 22.5q-37 0 -44 -45h-82q24 148 133 148zM452 279q0 66 -37 101.5t-85 35.5t-85 -36t-37 -102t37 -101.5t85 -35.5t85 36t37 102zM34 278q0 125 74 205.5t180.5 80.5t163.5 -79v73
h171v-558h-171v81q-62 -88 -166 -88t-178 80t-74 205z" />
    <glyph glyph-name="adieresis" unicode="&#xe4;" horiz-adv-x="698" 
d="M448 620q-31 0 -52 21t-21 52t21 52.5t52.5 21.5t52.5 -21.5t21 -52.5t-21.5 -52t-52.5 -21zM248 620q-31 0 -52 21t-21 52t21 52.5t52.5 21.5t52.5 -21.5t21 -52.5t-21.5 -52t-52.5 -21zM452 279q0 66 -37 101.5t-85 35.5t-85 -36t-37 -102t37 -101.5t85 -35.5t85 36
t37 102zM34 278q0 125 74 205.5t180.5 80.5t163.5 -79v73h171v-558h-171v81q-62 -88 -166 -88t-178 80t-74 205z" />
    <glyph glyph-name="aring" unicode="&#xe5;" horiz-adv-x="698" 
d="M398 721q0 21 -14 34.5t-35 13.5t-34.5 -13.5t-13.5 -34.5t13.5 -35t34.5 -14t35 14t14 35zM228 720q0 55 34.5 88t86.5 33t86.5 -33t34.5 -88t-34.5 -88t-86.5 -33t-86.5 33t-34.5 88zM452 279q0 66 -37 101.5t-85 35.5t-85 -36t-37 -102t37 -101.5t85 -35.5t85 36
t37 102zM34 278q0 125 74 205.5t180.5 80.5t163.5 -79v73h171v-558h-171v81q-62 -88 -166 -88t-178 80t-74 205z" />
    <glyph glyph-name="ae" unicode="&#xe6;" horiz-adv-x="1099" 
d="M623 558v-73q68 79 179 79t186.5 -79t75.5 -208q0 -29 -4 -54h-401q11 -45 43.5 -64.5t67.5 -19.5q64 0 91 41h185q-24 -84 -87.5 -135.5t-149.5 -51.5q-59 0 -110.5 24.5t-75.5 64.5v-82h-171v81q-62 -88 -166 -88t-178 80t-74 205t74 205.5t180.5 80.5t163.5 -79v73
h171zM330 141q48 0 85 36t37 102t-37 101.5t-85 35.5t-85 -36t-37 -102t37 -101.5t85 -35.5zM853 394q-30 24 -75 24t-79 -24.5t-42 -63.5h230q-4 40 -34 64z" />
    <glyph glyph-name="ccedilla" unicode="&#xe7;" horiz-adv-x="600" 
d="M367 -147q0 25 -23 25h-88v120q-100 17 -161 92t-61 197t77.5 199.5t200.5 77.5q102 0 173 -50.5t94 -144.5h-185q-24 50 -78.5 50t-81 -38.5t-26.5 -101.5t26.5 -101.5t77.5 -38.5q32 0 50 11t32 39h185q-20 -79 -78.5 -130t-141.5 -63v-33q55 0 92.5 -27t37.5 -83.5
t-38.5 -87.5t-91.5 -31h-163v93h111t41.5 1t6.5 2t5.5 3t3.5 5q3 3 3 15z" />
    <glyph glyph-name="egrave" unicode="&#xe8;" horiz-adv-x="632" 
d="M312 -7q-122 0 -200 78.5t-78 208.5t77.5 207t200.5 77t204 -76t81 -211q0 -29 -4 -54h-384q5 -37 33 -60.5t60.5 -23.5t48.5 6.5t23.5 13t19.5 21.5h185q-24 -84 -96 -135.5t-171 -51.5zM385 393.5q-30 24.5 -71 24.5t-69 -24.5t-35 -63.5h209q-4 39 -34 63.5zM432 714
v-118l-241 101v133z" />
    <glyph glyph-name="eacute" unicode="&#xe9;" horiz-adv-x="632" 
d="M312 -7q-122 0 -200 78.5t-78 208.5t77.5 207t200.5 77t204 -76t81 -211q0 -29 -4 -54h-384q5 -37 33 -60.5t60.5 -23.5t48.5 6.5t23.5 13t19.5 21.5h185q-24 -84 -96 -135.5t-171 -51.5zM385 393.5q-30 24.5 -71 24.5t-69 -24.5t-35 -63.5h209q-4 39 -34 63.5zM432 830
v-133l-241 -101v118z" />
    <glyph glyph-name="ecircumflex" unicode="&#xea;" horiz-adv-x="632" 
d="M312 -7q-122 0 -200 78.5t-78 208.5t77.5 207t200.5 77t204 -76t81 -211q0 -29 -4 -54h-384q5 -37 33 -60.5t60.5 -23.5t48.5 6.5t23.5 13t19.5 21.5h185q-24 -84 -96 -135.5t-171 -51.5zM385 393.5q-30 24.5 -71 24.5t-69 -24.5t-35 -63.5h209q-4 39 -34 63.5zM471 594
l-155 87l-155 -87v118l155 84l155 -84v-118z" />
    <glyph glyph-name="edieresis" unicode="&#xeb;" horiz-adv-x="632" 
d="M312 -7q-122 0 -200 78.5t-78 208.5t77.5 207t200.5 77t204 -76t81 -211q0 -29 -4 -54h-384q5 -37 33 -60.5t60.5 -23.5t48.5 6.5t23.5 13t19.5 21.5h185q-24 -84 -96 -135.5t-171 -51.5zM385 393.5q-30 24.5 -71 24.5t-69 -24.5t-35 -63.5h209q-4 39 -34 63.5zM215 620
q-31 0 -52 21t-21 52t21 52.5t52 21.5t52.5 -21.5t21.5 -52.5t-21.5 -52t-52.5 -21zM415 620q-31 0 -52 21t-21 52t21 52.5t52 21.5t52.5 -21.5t21.5 -52.5t-21.5 -52t-52.5 -21z" />
    <glyph glyph-name="igrave" unicode="&#xec;" horiz-adv-x="321" 
d="M36 697v133l241 -116v-118zM75 0v558h171v-558h-171z" />
    <glyph glyph-name="iacute" unicode="&#xed;" horiz-adv-x="321" 
d="M75 0v558h171v-558h-171zM36 714l241 116v-133l-241 -101v118z" />
    <glyph glyph-name="icircumflex" unicode="&#xee;" horiz-adv-x="321" 
d="M75 0v558h171v-558h-171zM316 712v-118l-155 87l-155 -87v118l155 84z" />
    <glyph glyph-name="idieresis" unicode="&#xef;" horiz-adv-x="321" 
d="M75 0v558h171v-558h-171zM260 620q-31 0 -52 21t-21 52t21 52.5t52.5 21.5t52.5 -21.5t21 -52.5t-21.5 -52t-52.5 -21zM60 620q-31 0 -52 21t-21 52t21 52.5t52.5 21.5t52.5 -21.5t21 -52.5t-21.5 -52t-52.5 -21z" />
    <glyph glyph-name="eth" unicode="&#xf0;" horiz-adv-x="652" 
d="M617 317q0 -154 -82 -239t-207 -85t-209.5 79t-84.5 208t79 206.5t199 77.5q58 0 114 -31q-17 40 -51 87l-105 -32v67l62 19q-33 34 -69 66h157l30 -30l95 29v-67l-50 -15q122 -159 122 -340zM327 139q48 0 82 36t34 104t-35 103.5t-83 35.5t-82.5 -35.5t-34.5 -103.5
t35.5 -104t83.5 -36z" />
    <glyph glyph-name="ntilde" unicode="&#xf1;" horiz-adv-x="700" 
d="M246 558v-82q53 88 169 88q96 0 155.5 -64t59.5 -174v-326h-170v303q0 54 -28.5 83.5t-78.5 29.5t-78.5 -29.5t-28.5 -83.5v-303h-171v558h171zM436 610q-32 0 -73 22.5t-58 22.5q-37 0 -44 -45h-82q24 148 133 148q32 0 73 -22.5t58 -22.5q37 0 43 45h83
q-24 -148 -133 -148z" />
    <glyph glyph-name="ograve" unicode="&#xf2;" horiz-adv-x="653" 
d="M202 697v133l241 -116v-118zM444 279q0 68 -35 103.5t-83 35.5t-82.5 -35.5t-34.5 -103.5t35.5 -104t83.5 -36t82 36t34 104zM35 280q0 129 84 206.5t208 77.5t207.5 -77.5t83.5 -206.5t-83 -208t-207 -79t-208.5 79t-84.5 208z" />
    <glyph glyph-name="oacute" unicode="&#xf3;" horiz-adv-x="653" 
d="M444 279q0 68 -35 103.5t-83 35.5t-82.5 -35.5t-34.5 -103.5t35.5 -104t83.5 -36t82 36t34 104zM35 280q0 129 84 206.5t208 77.5t207.5 -77.5t83.5 -206.5t-83 -208t-207 -79t-208.5 79t-84.5 208zM202 714l241 116v-133l-241 -101v118z" />
    <glyph glyph-name="ocircumflex" unicode="&#xf4;" horiz-adv-x="653" 
d="M444 279q0 68 -35 103.5t-83 35.5t-82.5 -35.5t-34.5 -103.5t35.5 -104t83.5 -36t82 36t34 104zM35 280q0 129 84 206.5t208 77.5t207.5 -77.5t83.5 -206.5t-83 -208t-207 -79t-208.5 79t-84.5 208zM482 712v-118l-155 87l-155 -87v118l155 84z" />
    <glyph glyph-name="otilde" unicode="&#xf5;" horiz-adv-x="653" 
d="M265 758q33 0 73 -22.5t58 -22.5q37 0 43 45h83q-24 -148 -133 -148q-33 0 -73 22.5t-58 22.5q-37 0 -44 -45h-82q24 148 133 148zM444 279q0 68 -35 103.5t-83 35.5t-82.5 -35.5t-34.5 -103.5t35.5 -104t83.5 -36t82 36t34 104zM35 280q0 129 84 206.5t208 77.5
t207.5 -77.5t83.5 -206.5t-83 -208t-207 -79t-208.5 79t-84.5 208z" />
    <glyph glyph-name="odieresis" unicode="&#xf6;" horiz-adv-x="653" 
d="M444 279q0 68 -35 103.5t-83 35.5t-82.5 -35.5t-34.5 -103.5t35.5 -104t83.5 -36t82 36t34 104zM35 280q0 129 84 206.5t208 77.5t207.5 -77.5t83.5 -206.5t-83 -208t-207 -79t-208.5 79t-84.5 208zM426 620q-31 0 -52 21t-21 52t21 52.5t52.5 21.5t52.5 -21.5t21 -52.5
t-21.5 -52t-52.5 -21zM226 620q-31 0 -52 21t-21 52t21 52.5t52.5 21.5t52.5 -21.5t21 -52.5t-21.5 -52t-52.5 -21z" />
    <glyph glyph-name="divide" unicode="&#xf7;" horiz-adv-x="608" 
d="M42 273v154h510v-154h-510zM363 496q-27 -27 -66.5 -27t-66.5 27t-27 66.5t27 66.5t66.5 27t66.5 -27t27 -66.5t-27 -66.5zM363 71q-27 -27 -66.5 -27t-66.5 27t-27 66.5t27 66.5t66.5 27t66.5 -27t27 -66.5t-27 -66.5z" />
    <glyph glyph-name="oslash" unicode="&#xf8;" horiz-adv-x="653" 
d="M549 472q70 -76 70 -198.5t-83 -201.5t-207 -79q-97 0 -172 50l-40 -43h-92l80 88q-69 77 -69 199t84 199.5t208 77.5q96 0 170 -48l38 42h92zM391 399q-28 19 -70 19t-76.5 -35.5t-34.5 -103.5q0 -37 11 -65zM263 160q30 -21 72 -21t76 36t34 104q0 39 -12 66z" />
    <glyph glyph-name="ugrave" unicode="&#xf9;" horiz-adv-x="700" 
d="M454 558h171v-558h-171v82q-53 -88 -169 -88q-96 0 -155.5 64t-59.5 174v326h170v-303q0 -54 28.5 -83.5t78.5 -29.5t78.5 29.5t28.5 83.5v303zM466 714v-118l-241 101v133z" />
    <glyph glyph-name="uacute" unicode="&#xfa;" horiz-adv-x="700" 
d="M454 558h171v-558h-171v82q-53 -88 -169 -88q-96 0 -155.5 64t-59.5 174v326h170v-303q0 -54 28.5 -83.5t78.5 -29.5t78.5 29.5t28.5 83.5v303zM466 830v-133l-241 -101v118z" />
    <glyph glyph-name="ucircumflex" unicode="&#xfb;" horiz-adv-x="700" 
d="M454 558h171v-558h-171v82q-53 -88 -169 -88q-96 0 -155.5 64t-59.5 174v326h170v-303q0 -54 28.5 -83.5t78.5 -29.5t78.5 29.5t28.5 83.5v303zM505 594l-155 87l-155 -87v118l155 84l155 -84v-118z" />
    <glyph glyph-name="udieresis" unicode="&#xfc;" horiz-adv-x="700" 
d="M454 558h171v-558h-171v82q-53 -88 -169 -88q-96 0 -155.5 64t-59.5 174v326h170v-303q0 -54 28.5 -83.5t78.5 -29.5t78.5 29.5t28.5 83.5v303zM249 620q-31 0 -52 21t-21 52t21 52.5t52 21.5t52.5 -21.5t21.5 -52.5t-21.5 -52t-52.5 -21zM449 620q-31 0 -52 21t-21 52
t21 52.5t52 21.5t52.5 -21.5t21.5 -52.5t-21.5 -52t-52.5 -21z" />
    <glyph glyph-name="yacute" unicode="&#xfd;" horiz-adv-x="641" 
d="M196 714l241 116v-133l-241 -101v118zM221 11l-217 547h194l124 -365l136 365h179l-356 -824h-179z" />
    <glyph glyph-name="thorn" unicode="&#xfe;" horiz-adv-x="698" 
d="M490 278q0 66 -37 102t-85 36t-85 -35.5t-37 -101.5t37 -102t85 -36t85 35.5t37 101.5zM246 485q57 79 163.5 79t180.5 -80.5t74 -205.5t-74 -205t-179 -80t-165 88v-347h-171v1006h171v-255z" />
    <glyph glyph-name="ydieresis" unicode="&#xff;" horiz-adv-x="641" 
d="M420 620q-31 0 -52 21t-21 52t21 52.5t52.5 21.5t52.5 -21.5t21 -52.5t-21.5 -52t-52.5 -21zM220 620q-31 0 -52 21t-21 52t21 52.5t52.5 21.5t52.5 -21.5t21 -52.5t-21.5 -52t-52.5 -21zM221 11l-217 547h194l124 -365l136 365h179l-356 -824h-179z" />
    <glyph glyph-name="Amacron" unicode="&#x100;" horiz-adv-x="713" 
d="M521 0l-39 118h-252l-39 -118h-182l244 704h208l243 -704h-183zM273 248h166l-83 250zM557 892v-118h-400v118h400z" />
    <glyph glyph-name="amacron" unicode="&#x101;" horiz-adv-x="698" 
d="M149 628v118h400v-118h-400zM452 279q0 66 -37 101.5t-85 35.5t-85 -36t-37 -102t37 -101.5t85 -35.5t85 36t37 102zM34 278q0 125 74 205.5t180.5 80.5t163.5 -79v73h171v-558h-171v81q-62 -88 -166 -88t-178 80t-74 205z" />
    <glyph glyph-name="Abreve" unicode="&#x102;" horiz-adv-x="713" 
d="M521 0l-39 118h-252l-39 -118h-182l244 704h208l243 -704h-183zM273 248h166l-83 250zM527 942v-30q0 -78 -46.5 -120t-123.5 -42t-123.5 42t-46.5 120v30h85q0 -33 19 -50t66 -17t66 17t19 50h85z" />
    <glyph glyph-name="abreve" unicode="&#x103;" horiz-adv-x="698" 
d="M519 766q0 -78 -46.5 -120t-123.5 -42t-123.5 42t-46.5 120v30h85q0 -33 19 -50t66 -17t66 17t19 50h85v-30zM452 279q0 66 -37 101.5t-85 35.5t-85 -36t-37 -102t37 -101.5t85 -35.5t85 36t37 102zM34 278q0 125 74 205.5t180.5 80.5t163.5 -79v73h171v-558h-171v81
q-62 -88 -166 -88t-178 80t-74 205z" />
    <glyph glyph-name="Aogonek" unicode="&#x104;" horiz-adv-x="713" 
d="M616 -68q-23 0 -23 -25q0 -12 2.5 -15t4 -5t5.5 -3t6.5 -2t8.5 -1h124v-93h-143q-53 0 -91.5 31t-38.5 91t50 88l-39 120h-252l-39 -118h-182l244 704h208l243 -704v-68h-88zM274 248h165l-83 249z" />
    <glyph glyph-name="aogonek" unicode="&#x105;" horiz-adv-x="698" 
d="M535 -68q-23 0 -23 -25q0 -12 2.5 -15t4 -5t5.5 -3t6.5 -2t7.5 -1h125v-93h-143q-53 0 -91.5 31t-38.5 88q0 69 62 97v77q-62 -88 -166 -88t-178 80t-74 205t74 205.5t180.5 80.5t163.5 -79v73h171v-626h-88zM330 141q48 0 85 36t37 102t-37 101.5t-85 35.5t-85 -36
t-37 -102t37 -101.5t85 -35.5z" />
    <glyph glyph-name="Cacute" unicode="&#x106;" horiz-adv-x="764" 
d="M34 353q0 156 104.5 257.5t255.5 101.5q117 0 208 -62t127 -172h-204q-40 77 -128 77t-138.5 -55t-50.5 -147t50.5 -147t138.5 -55t128 77h204q-36 -110 -127 -172t-208 -62q-151 0 -255.5 101.5t-104.5 257.5zM257 860l241 116v-133l-241 -101v118z" />
    <glyph glyph-name="cacute" unicode="&#x107;" horiz-adv-x="600" 
d="M34 279q0 130 77.5 207.5t200.5 77.5q102 0 173 -50.5t94 -144.5h-185q-24 50 -78.5 50t-81 -38.5t-26.5 -101.5t26.5 -101.5t77.5 -38.5q32 0 50 11t32 39h185q-23 -90 -95 -143t-172 -53q-123 0 -200.5 78t-77.5 208zM175 714l241 116v-133l-241 -101v118z" />
    <glyph glyph-name="Ccaron" unicode="&#x10c;" horiz-adv-x="764" 
d="M34 353q0 156 104.5 257.5t255.5 101.5q117 0 208 -62t127 -172h-204q-40 77 -128 77t-138.5 -55t-50.5 -147t50.5 -147t138.5 -55t128 77h204q-36 -110 -127 -172t-208 -62q-151 0 -255.5 101.5t-104.5 257.5zM382 855l155 87v-118l-155 -84l-155 84v118z" />
    <glyph glyph-name="ccaron" unicode="&#x10d;" horiz-adv-x="600" 
d="M34 279q0 130 77.5 207.5t200.5 77.5q102 0 173 -50.5t94 -144.5h-185q-24 50 -78.5 50t-81 -38.5t-26.5 -101.5t26.5 -101.5t77.5 -38.5q32 0 50 11t32 39h185q-23 -90 -95 -143t-172 -53q-123 0 -200.5 78t-77.5 208zM300 709l155 87v-118l-155 -84l-155 84v118z" />
    <glyph glyph-name="Dcaron" unicode="&#x10e;" horiz-adv-x="739" 
d="M246 130h76q98 0 154 60t56 161t-56 161t-154 60h-76v-442zM322 702q168 0 276 -97.5t108 -253t-108 -253.5t-276 -98h-247v702h247zM370 855l155 87v-118l-155 -84l-155 84v118z" />
    <glyph glyph-name="dcaron" unicode="&#x10f;" horiz-adv-x="834" 
d="M452 279q0 66 -37 101.5t-85 35.5t-85 -36t-37 -102t37 -101.5t85 -35.5t85 36t37 102zM34 278q0 125 74 205.5t180.5 80.5t163.5 -79v255h171v-740h-171v81q-62 -88 -166 -88t-178 80t-74 205zM673 740h131q20 -60 20 -124t-35.5 -105t-104.5 -41v65q52 0 52 66v16h-63
v123z" />
    <glyph glyph-name="Dcroat" unicode="&#x110;" horiz-adv-x="739" 
d="M75 702h247q168 0 276 -97.5t108 -253t-108 -253.5t-276 -98h-247v269h-55v164h55v269zM246 130h76q98 0 154 60t56 161t-56 161t-154 60h-76v-139h145v-164h-145v-139z" />
    <glyph glyph-name="dcroat" unicode="&#x111;" horiz-adv-x="698" 
d="M679 673v-82h-56v-591h-171v81q-62 -88 -166 -88t-178 80t-74 205t74 205.5t180.5 80.5t163.5 -79v106h-76v82h76v67h171v-67h56zM330 141q48 0 85 36t37 102t-37 101.5t-85 35.5t-85 -36t-37 -102t37 -101.5t85 -35.5z" />
    <glyph glyph-name="Emacron" unicode="&#x112;" horiz-adv-x="572" 
d="M86 774v118h400v-118h-400zM500 704v-130h-254v-151h224v-130h-224v-163h254v-130h-425v704h425z" />
    <glyph glyph-name="emacron" unicode="&#x113;" horiz-adv-x="632" 
d="M312 -7q-122 0 -200 78.5t-78 208.5t77.5 207t200.5 77t204 -76t81 -211q0 -29 -4 -54h-384q5 -37 33 -60.5t60.5 -23.5t48.5 6.5t23.5 13t19.5 21.5h185q-24 -84 -96 -135.5t-171 -51.5zM385 393.5q-30 24.5 -71 24.5t-69 -24.5t-35 -63.5h209q-4 39 -34 63.5zM516 746
v-118h-400v118h400z" />
    <glyph glyph-name="Edotaccent" unicode="&#x116;" horiz-adv-x="572" 
d="M285 766q-31 0 -52 21t-21 52t21 52.5t52 21.5t52.5 -21.5t21.5 -52.5t-21.5 -52t-52.5 -21zM500 704v-130h-254v-151h224v-130h-224v-163h254v-130h-425v704h425z" />
    <glyph glyph-name="edotaccent" unicode="&#x117;" horiz-adv-x="632" 
d="M312 -7q-122 0 -200 78.5t-78 208.5t77.5 207t200.5 77t204 -76t81 -211q0 -29 -4 -54h-384q5 -37 33 -60.5t60.5 -23.5t48.5 6.5t23.5 13t19.5 21.5h185q-24 -84 -96 -135.5t-171 -51.5zM385 393.5q-30 24.5 -71 24.5t-69 -24.5t-35 -63.5h209q-4 39 -34 63.5zM315 620
q-31 0 -52 21t-21 52t21 52.5t52 21.5t52.5 -21.5t21.5 -52.5t-21.5 -52t-52.5 -21z" />
    <glyph glyph-name="Eogonek" unicode="&#x118;" horiz-adv-x="572" 
d="M412 -68q-23 0 -23 -25q0 -12 2.5 -15t4 -5t5.5 -3t6.5 -2t8.5 -1h124v-93h-143q-53 0 -91.5 31t-38.5 91.5t54 89.5h-246v704h425v-130h-254v-151h224v-130h-224v-163h254v-198h-88z" />
    <glyph glyph-name="eogonek" unicode="&#x119;" horiz-adv-x="632" 
d="M276 -15v10q-108 11 -175 88t-67 202t77.5 202t200.5 77t204 -76t81 -211q0 -29 -4 -54h-384q5 -37 33 -60.5t60.5 -23.5t48.5 6.5t23.5 13t19.5 21.5h185q-17 -62 -59.5 -104.5t-90.5 -60.5q-31 -12 -31 -30q0 -12 2.5 -15t4 -5t5.5 -3t6.5 -2t7.5 -1h125v-93h-143
q-53 0 -91.5 31t-38.5 88zM385 393.5q-30 24.5 -71 24.5t-69 -24.5t-35 -63.5h209q-4 39 -34 63.5z" />
    <glyph glyph-name="Ecaron" unicode="&#x11a;" horiz-adv-x="572" 
d="M500 704v-130h-254v-151h224v-130h-224v-163h254v-130h-425v704h425zM286 855l155 87v-118l-155 -84l-155 84v118z" />
    <glyph glyph-name="ecaron" unicode="&#x11b;" horiz-adv-x="632" 
d="M312 -7q-122 0 -200 78.5t-78 208.5t77.5 207t200.5 77t204 -76t81 -211q0 -29 -4 -54h-384q5 -37 33 -60.5t60.5 -23.5t48.5 6.5t23.5 13t19.5 21.5h185q-24 -84 -96 -135.5t-171 -51.5zM385 393.5q-30 24.5 -71 24.5t-69 -24.5t-35 -63.5h209q-4 39 -34 63.5zM471 678
l-155 -84l-155 84v118l155 -87l155 87v-118z" />
    <glyph glyph-name="Gbreve" unicode="&#x11e;" horiz-adv-x="764" 
d="M552 912q0 -78 -46.5 -120t-123.5 -42t-123.5 42t-46.5 120v30h85q0 -33 19 -50t66 -17t66 17t19 50h85v-30zM34 353q0 156 104.5 257.5t255.5 101.5q117 0 208 -62t127 -172h-204q-40 77 -128 77t-138.5 -55t-50.5 -147t50.5 -147t135.5 -55q61 0 99.5 30.5t51.5 81.5
h-198v130h382v-130q-19 -96 -105 -179q-41 -40 -101.5 -65t-128.5 -25q-151 0 -255.5 101.5t-104.5 257.5z" />
    <glyph glyph-name="gbreve" unicode="&#x11f;" horiz-adv-x="698" 
d="M519 766q0 -78 -46.5 -120t-123.5 -42t-123.5 42t-46.5 120v30h85q0 -33 19 -50t66 -17t66 17t19 50h85v-30zM34 278q0 125 74 205.5t180.5 80.5t163.5 -79v73h171v-555q0 -117 -64 -195q-32 -40 -87.5 -62t-128.5 -22q-128 0 -203 52t-85 159h168q24 -63 120 -63
q47 0 78 31.5t31 99.5v78q-62 -88 -166 -88t-178 80t-74 205zM452 279q0 66 -37 101.5t-85 35.5t-85 -36t-37 -102t37 -101.5t85 -35.5t85 36t37 102z" />
    <glyph glyph-name="uni0122" unicode="&#x122;" horiz-adv-x="764" 
d="M34 353q0 156 104.5 257.5t255.5 101.5q117 0 208 -62t127 -172h-204q-40 77 -128 77t-138.5 -55t-50.5 -147t50.5 -147t135.5 -55q61 0 99.5 30.5t51.5 81.5h-198v130h382v-130q-19 -96 -105 -179q-41 -40 -101.5 -65t-128.5 -25q-151 0 -255.5 101.5t-104.5 257.5z
M314 -40h131q20 -60 20 -124t-35.5 -105t-104.5 -41v65q52 0 52 66v16h-63v123z" />
    <glyph glyph-name="uni0123" unicode="&#x123;" horiz-adv-x="698" 
d="M34 278q0 125 74 205.5t180.5 80.5t163.5 -79v73h171v-555q0 -117 -64 -195q-32 -40 -87.5 -62t-128.5 -22q-128 0 -203 52t-85 159h168q24 -63 120 -63q47 0 78 31.5t31 99.5v78q-62 -88 -166 -88t-178 80t-74 205zM452 279q0 66 -37 101.5t-85 35.5t-85 -36t-37 -102
t37 -101.5t85 -35.5t85 36t37 102zM417 598h-131q-20 60 -20 124t35.5 105t104.5 41v-65q-52 0 -52 -66v-16h63v-123z" />
    <glyph glyph-name="Imacron" unicode="&#x12a;" horiz-adv-x="321" 
d="M-39 774v118h400v-118h-400zM75 0v702h171v-702h-171z" />
    <glyph glyph-name="imacron" unicode="&#x12b;" horiz-adv-x="321" 
d="M-39 628v118h400v-118h-400zM75 0v558h171v-558h-171z" />
    <glyph glyph-name="Iogonek" unicode="&#x12e;" horiz-adv-x="321" 
d="M158 -68q-23 0 -23 -25q0 -12 2.5 -15t4 -5t5.5 -3t6.5 -2t8.5 -1h124v-93h-143q-53 0 -91.5 31t-38.5 88q0 69 62 97v698h171v-770h-88z" />
    <glyph glyph-name="iogonek" unicode="&#x12f;" horiz-adv-x="321" 
d="M158 -68q-23 0 -23 -25q0 -12 2.5 -15t4 -5t5.5 -3t6.5 -2t8.5 -1h124v-93h-143q-53 0 -91.5 31t-38.5 88q0 69 62 97v554h171v-626h-88zM160 592q-42 0 -71 29t-29 71.5t29 71.5t71 29t71 -29t29 -71.5t-29 -71.5t-71 -29z" />
    <glyph glyph-name="Idotaccent" unicode="&#x130;" horiz-adv-x="321" 
d="M160 766q-31 0 -52 21t-21 52t21 52.5t52.5 21.5t52.5 -21.5t21 -52.5t-21.5 -52t-52.5 -21zM75 0v702h171v-702h-171z" />
    <glyph glyph-name="dotlessi" unicode="&#x131;" horiz-adv-x="321" 
d="M75 0v558h171v-558h-171z" />
    <glyph glyph-name="uni0136" unicode="&#x136;" horiz-adv-x="720" 
d="M246 0h-171v702h171v-308l232 308h224l-289 -351l289 -351h-220l-236 310v-310zM292 -40h131q20 -60 20 -124t-35.5 -105t-104.5 -41v65q52 0 52 66v16h-63v123z" />
    <glyph glyph-name="uni0137" unicode="&#x137;" horiz-adv-x="653" 
d="M246 0h-171v740h171v-415l173 233h230l-239 -285l239 -273h-227l-176 223v-223zM259 -40h131q20 -60 20 -124t-35.5 -105t-104.5 -41v65q52 0 52 66v16h-63v123z" />
    <glyph glyph-name="Lacute" unicode="&#x139;" horiz-adv-x="479" 
d="M75 702h171v-572h213v-130h-384v702zM115 860l241 116v-133l-241 -101v118z" />
    <glyph glyph-name="lacute" unicode="&#x13a;" horiz-adv-x="321" 
d="M75 0v740h171v-740h-171zM36 896l241 116v-133l-241 -101v118z" />
    <glyph glyph-name="uni013B" unicode="&#x13b;" horiz-adv-x="479" 
d="M75 702h171v-572h213v-130h-384v702zM202 -40h131q20 -60 20 -124t-35.5 -105t-104.5 -41v65q52 0 52 66v16h-63v123z" />
    <glyph glyph-name="uni013C" unicode="&#x13c;" horiz-adv-x="321" 
d="M75 0v740h171v-740h-171zM93 -40h131q20 -60 20 -124t-35.5 -105t-104.5 -41v65q52 0 52 66v16h-63v123z" />
    <glyph glyph-name="Lcaron" unicode="&#x13d;" horiz-adv-x="523" 
d="M75 702h171v-572h213v-130h-384v702zM335 702h131q20 -60 20 -124t-35.5 -105t-104.5 -41v65q52 0 52 66v16h-63v123z" />
    <glyph glyph-name="lcaron" unicode="&#x13e;" horiz-adv-x="519" 
d="M75 0v740h171v-740h-171zM324 740h131q20 -60 20 -124t-35.5 -105t-104.5 -41v65q52 0 52 66v16h-63v123z" />
    <glyph glyph-name="Lslash" unicode="&#x141;" horiz-adv-x="479" 
d="M246 130h213v-130h-384v252l-55 -13v164l55 13v286h171v-244l63 15v-164l-63 -15v-164z" />
    <glyph glyph-name="lslash" unicode="&#x142;" horiz-adv-x="321" 
d="M246 0h-171v253l-55 -14v164l55 14v323h171v-281l55 14v-164l-55 -14v-295z" />
    <glyph glyph-name="Nacute" unicode="&#x143;" horiz-adv-x="778" 
d="M532 704h171v-704h-171l-286 443v-443h-171v704h171l286 -443v443zM264 860l241 116v-133l-241 -101v118z" />
    <glyph glyph-name="nacute" unicode="&#x144;" horiz-adv-x="700" 
d="M246 558v-82q53 88 169 88q96 0 155.5 -64t59.5 -174v-326h-170v303q0 54 -28.5 83.5t-78.5 29.5t-78.5 -29.5t-28.5 -83.5v-303h-171v558h171zM490 830v-133l-241 -101v118z" />
    <glyph glyph-name="uni0145" unicode="&#x145;" horiz-adv-x="778" 
d="M532 704h171v-704h-171l-286 443v-443h-171v704h171l286 -443v443zM321 -40h131q20 -60 20 -124t-35.5 -105t-104.5 -41v65q52 0 52 66v16h-63v123z" />
    <glyph glyph-name="uni0146" unicode="&#x146;" horiz-adv-x="700" 
d="M246 558v-82q53 88 169 88q96 0 155.5 -64t59.5 -174v-326h-170v303q0 54 -28.5 83.5t-78.5 29.5t-78.5 -29.5t-28.5 -83.5v-303h-171v558h171zM282 -40h131q20 -60 20 -124t-35.5 -105t-104.5 -41v65q52 0 52 66v16h-63v123z" />
    <glyph glyph-name="Ncaron" unicode="&#x147;" horiz-adv-x="778" 
d="M532 704h171v-704h-171l-286 443v-443h-171v704h171l286 -443v443zM389 855l155 87v-118l-155 -84l-155 84v118z" />
    <glyph glyph-name="ncaron" unicode="&#x148;" horiz-adv-x="700" 
d="M246 558v-82q53 88 169 88q96 0 155.5 -64t59.5 -174v-326h-170v303q0 54 -28.5 83.5t-78.5 29.5t-78.5 -29.5t-28.5 -83.5v-303h-171v558h171zM529 678l-155 -84l-155 84v118l155 -87l155 87v-118z" />
    <glyph glyph-name="Omacron" unicode="&#x14c;" horiz-adv-x="788" 
d="M579 353q0 92 -50.5 147t-135 55t-135 -55t-50.5 -147t50.5 -147t135 -55t135 55t50.5 147zM34 353q0 156 104.5 257.5t256 101.5t255 -101.5t103.5 -257.5t-104 -258t-255 -102t-255.5 102t-104.5 258zM194 774v118h400v-118h-400z" />
    <glyph glyph-name="omacron" unicode="&#x14d;" horiz-adv-x="653" 
d="M444 279q0 68 -35 103.5t-83 35.5t-82.5 -35.5t-34.5 -103.5t35.5 -104t83.5 -36t82 36t34 104zM35 280q0 129 84 206.5t208 77.5t207.5 -77.5t83.5 -206.5t-83 -208t-207 -79t-208.5 79t-84.5 208zM127 628v118h400v-118h-400z" />
    <glyph glyph-name="Ohungarumlaut" unicode="&#x150;" horiz-adv-x="788" 
d="M579 353q0 92 -50.5 147t-135 55t-135 -55t-50.5 -147t50.5 -147t135 -55t135 55t50.5 147zM34 353q0 156 104.5 257.5t256 101.5t255 -101.5t103.5 -257.5t-104 -258t-255 -102t-255.5 102t-104.5 258zM307 956h135l-105 -209h-105zM520 956h135l-125 -209h-105z" />
    <glyph glyph-name="ohungarumlaut" unicode="&#x151;" horiz-adv-x="653" 
d="M444 279q0 68 -35 103.5t-83 35.5t-82.5 -35.5t-34.5 -103.5t35.5 -104t83.5 -36t82 36t34 104zM35 280q0 129 84 206.5t208 77.5t207.5 -77.5t83.5 -206.5t-83 -208t-207 -79t-208.5 79t-84.5 208zM240 810h135l-105 -209h-105zM453 810h135l-125 -209h-105z" />
    <glyph glyph-name="OE" unicode="&#x152;" horiz-adv-x="1076" 
d="M1004 572h-254v-151h224v-130h-224v-161h254v-130h-425v63q-85 -70 -185 -70q-151 0 -255.5 102t-104.5 258t104.5 257.5t255.5 101.5q104 0 185 -73v63h425v-130zM208 353q0 -92 50.5 -147t135 -55t135 55t50.5 147t-50.5 147t-135 55t-135 -55t-50.5 -147z" />
    <glyph glyph-name="oe" unicode="&#x153;" horiz-adv-x="1041" 
d="M721 -7q-118 0 -194 91q-80 -91 -202 -91t-206.5 79t-84.5 208t84 206.5t206 77.5t202 -91q76 91 197 91t202 -76t81 -211q0 -29 -4 -54h-384q5 -37 33 -60.5t60.5 -23.5t48.5 6.5t23.5 13t19.5 21.5h185q-24 -84 -96 -135.5t-171 -51.5zM327 139q48 0 82 36t34 104
t-35 103.5t-83 35.5t-82.5 -35.5t-34.5 -103.5t35.5 -104t83.5 -36zM794 393.5q-30 24.5 -71 24.5t-69 -24.5t-35 -63.5h209q-4 39 -34 63.5z" />
    <glyph glyph-name="Racute" unicode="&#x154;" horiz-adv-x="668" 
d="M246 273v-273h-171v702h277q122 0 190 -63t68 -152q0 -61 -37 -119t-121 -82l172 -286h-200l-158 273h-20zM246 572v-169h106q39 0 61.5 23t22.5 60.5t-23 61.5t-61 24h-106zM450 976v-133l-241 -101v118z" />
    <glyph glyph-name="racute" unicode="&#x155;" horiz-adv-x="424" 
d="M246 558v-104q60 110 160 110v-174h-42q-59 0 -88.5 -28t-29.5 -98v-264h-171v558h171zM388 830v-133l-241 -101v118z" />
    <glyph glyph-name="uni0156" unicode="&#x156;" horiz-adv-x="668" 
d="M246 273v-273h-171v702h277q122 0 190 -63t68 -152q0 -61 -37 -119t-121 -82l172 -286h-200l-158 273h-20zM246 572v-169h106q39 0 61.5 23t22.5 60.5t-23 61.5t-61 24h-106zM266 -40h131q20 -60 20 -124t-35.5 -105t-104.5 -41v65q52 0 52 66v16h-63v123z" />
    <glyph glyph-name="uni0157" unicode="&#x157;" horiz-adv-x="424" 
d="M246 558v-104q60 110 160 110v-174h-42q-59 0 -88.5 -28t-29.5 -98v-264h-171v558h171zM89 -40h131q20 -60 20 -124t-35.5 -105t-104.5 -41v65q52 0 52 66v16h-63v123z" />
    <glyph glyph-name="Rcaron" unicode="&#x158;" horiz-adv-x="668" 
d="M246 273v-273h-171v702h277q122 0 190 -63t68 -152q0 -61 -37 -119t-121 -82l172 -286h-200l-158 273h-20zM246 572v-169h106q39 0 61.5 23t22.5 60.5t-23 61.5t-61 24h-106zM489 824l-155 -84l-155 84v118l155 -87l155 87v-118z" />
    <glyph glyph-name="rcaron" unicode="&#x159;" horiz-adv-x="424" 
d="M272 709l155 87v-118l-155 -84l-155 84v118zM246 558v-104q60 110 160 110v-174h-42q-59 0 -88.5 -28t-29.5 -98v-264h-171v558h171z" />
    <glyph glyph-name="Sacute" unicode="&#x15a;" horiz-adv-x="647" 
d="M260.5 560q-20.5 -17 -20.5 -49t19 -51.5t49.5 -30t68 -20t74.5 -23t67.5 -33.5t49.5 -56.5t19 -87.5q0 -89 -72.5 -152.5t-191 -63.5t-191 57t-72.5 162h182q7 -84 86 -84q37 0 58 19.5t21 49.5t-19 49t-49.5 30t-68 20.5t-74.5 23.5t-67.5 33.5t-49.5 56t-19 86.5
q0 98 73 157t186.5 59t183.5 -51.5t73 -162.5h-186q-4 38 -24.5 58.5t-52.5 20.5t-52.5 -17zM199 860l241 116v-133l-241 -101v118z" />
    <glyph glyph-name="sacute" unicode="&#x15b;" horiz-adv-x="555" 
d="M37 390q0 74 63 124t170.5 50t173.5 -49t70 -134h-175q-3 29 -20 39.5t-51 10.5q-67 0 -67 -41q0 -37 82 -51q83 -14 151 -43q35 -14 58.5 -46.5t23.5 -79.5q0 -78 -67 -127.5t-169 -49.5t-170 46.5t-74 137.5h175q7 -51 72 -51q30 0 49.5 14t19.5 36t-32.5 35t-78.5 22
t-92.5 22.5t-79 47t-32.5 87.5zM153 714l241 116v-133l-241 -101v118z" />
    <glyph glyph-name="Scedilla" unicode="&#x15e;" horiz-adv-x="647" 
d="M391 -147q0 25 -23 25h-88v117q-102 11 -161 67t-59 150h182q7 -84 86 -84q37 0 58 19.5t21 49.5t-19 49t-49.5 30t-68 20.5t-74.5 23.5t-67.5 33.5t-49.5 56t-19 86.5q0 98 73 157t186.5 59t183.5 -51.5t73 -162.5h-186q-4 38 -24.5 58.5t-52.5 20.5t-52.5 -17
t-20.5 -49t19 -51.5t49.5 -30t68 -20t74.5 -23t67.5 -33.5t49.5 -56.5t19 -87.5q0 -78 -56 -137t-148 -75v-34q55 0 92.5 -27t37.5 -83.5t-38.5 -87.5t-91.5 -31h-163v93h111t41.5 1t6.5 2t5.5 3t3.5 5q3 3 3 15z" />
    <glyph glyph-name="scedilla" unicode="&#x15f;" horiz-adv-x="555" 
d="M345 -147q0 25 -23 25h-88v118q-86 9 -139 55t-59 126h175q7 -51 72 -51q30 0 49.5 14t19.5 36t-32.5 35t-78.5 22t-92.5 22.5t-79 47t-32.5 87.5q0 74 63 124t170.5 50t173.5 -49t70 -134h-175q-3 29 -20 39.5t-51 10.5q-67 0 -67 -41q0 -37 82 -51q83 -14 151 -43
q35 -14 58.5 -46.5t23.5 -79.5q0 -67 -49.5 -113.5t-129.5 -59.5v-34q55 0 92.5 -27t37.5 -83.5t-38.5 -87.5t-91.5 -31h-163v93h111t41.5 1t6.5 2t5.5 3t3.5 5q3 3 3 15z" />
    <glyph glyph-name="Scaron" unicode="&#x160;" horiz-adv-x="647" 
d="M260.5 560q-20.5 -17 -20.5 -49t19 -51.5t49.5 -30t68 -20t74.5 -23t67.5 -33.5t49.5 -56.5t19 -87.5q0 -89 -72.5 -152.5t-191 -63.5t-191 57t-72.5 162h182q7 -84 86 -84q37 0 58 19.5t21 49.5t-19 49t-49.5 30t-68 20.5t-74.5 23.5t-67.5 33.5t-49.5 56t-19 86.5
q0 98 73 157t186.5 59t183.5 -51.5t73 -162.5h-186q-4 38 -24.5 58.5t-52.5 20.5t-52.5 -17zM324 855l155 87v-118l-155 -84l-155 84v118z" />
    <glyph glyph-name="scaron" unicode="&#x161;" horiz-adv-x="555" 
d="M37 390q0 74 63 124t170.5 50t173.5 -49t70 -134h-175q-3 29 -20 39.5t-51 10.5q-67 0 -67 -41q0 -37 82 -51q83 -14 151 -43q35 -14 58.5 -46.5t23.5 -79.5q0 -78 -67 -127.5t-169 -49.5t-170 46.5t-74 137.5h175q7 -51 72 -51q30 0 49.5 14t19.5 36t-32.5 35t-78.5 22
t-92.5 22.5t-79 47t-32.5 87.5zM278 709l155 87v-118l-155 -84l-155 84v118z" />
    <glyph glyph-name="uni0162" unicode="&#x162;" horiz-adv-x="608" 
d="M581 572h-192v-574q100 -16 100 -113q0 -58 -36 -90t-94 -32h-193v93h155q25 0 35.5 6.5t10.5 22.5q0 30 -46 30h-103v657h-191v130h554v-130z" />
    <glyph glyph-name="uni0163" unicode="&#x163;" horiz-adv-x="415" 
d="M275 -147q0 25 -23 25h-88v147q-75 41 -75 159v232h-52v142h52v136h171v-136h112v-142h-112v-232q0 -39 52 -39h61v-145h-106v-37q55 0 92.5 -27t37.5 -83.5t-38.5 -87.5t-91.5 -31h-163v93h111t41.5 1t6.5 2t5.5 3t3.5 5q3 3 3 15z" />
    <glyph glyph-name="Tcaron" unicode="&#x164;" horiz-adv-x="608" 
d="M27 572v130h554v-130h-192v-572h-171v572h-191zM304 855l155 87v-118l-155 -84l-155 84v118z" />
    <glyph glyph-name="tcaron" unicode="&#x165;" horiz-adv-x="415" 
d="M312 145h61v-145h-87q-94 0 -145.5 41.5t-51.5 142.5v232h-52v142h52v136h171v-136h112v-142h-112v-232q0 -39 52 -39zM140 -40h131q20 -60 20 -124t-35.5 -105t-104.5 -41v65q52 0 52 66v16h-63v123z" />
    <glyph glyph-name="Umacron" unicode="&#x16a;" horiz-adv-x="731" 
d="M166 774v118h400v-118h-400zM72 283v419h171v-419q0 -63 31 -97t91 -34t92 34t32 97v419h171v-419q0 -93 -43.5 -160.5t-110 -98.5t-144.5 -31q-122 0 -206 76t-84 214z" />
    <glyph glyph-name="umacron" unicode="&#x16b;" horiz-adv-x="700" 
d="M454 558h171v-558h-171v82q-53 -88 -169 -88q-96 0 -155.5 64t-59.5 174v326h170v-303q0 -54 28.5 -83.5t78.5 -29.5t78.5 29.5t28.5 83.5v303zM550 746v-118h-400v118h400z" />
    <glyph glyph-name="Uring" unicode="&#x16e;" horiz-adv-x="731" 
d="M72 283v419h171v-419q0 -63 31 -97t91 -34t92 34t32 97v419h171v-419q0 -93 -43.5 -160.5t-110 -98.5t-144.5 -31q-122 0 -206 76t-84 214zM415 867q0 21 -14 34.5t-35 13.5t-34.5 -13.5t-13.5 -34.5t14 -35t34.5 -14t34.5 14t14 35zM245 866q0 55 34.5 88t86.5 33
t86.5 -33t34.5 -88t-34.5 -88t-86.5 -33t-86.5 33t-34.5 88z" />
    <glyph glyph-name="uring" unicode="&#x16f;" horiz-adv-x="700" 
d="M454 558h171v-558h-171v82q-53 -88 -169 -88q-96 0 -155.5 64t-59.5 174v326h170v-303q0 -54 28.5 -83.5t78.5 -29.5t78.5 29.5t28.5 83.5v303zM350 599q-52 0 -86.5 33t-34.5 88t34.5 88t86.5 33t86.5 -33t34.5 -88t-34.5 -88t-86.5 -33zM350 769q-21 0 -34.5 -13.5
t-13.5 -34.5t14 -35t34.5 -14t34.5 14t14 35t-14 34.5t-35 13.5z" />
    <glyph glyph-name="Uhungarumlaut" unicode="&#x170;" horiz-adv-x="731" 
d="M279 956h135l-105 -209h-105zM492 956h135l-125 -209h-105zM72 283v419h171v-419q0 -63 31 -97t91 -34t92 34t32 97v419h171v-419q0 -93 -43.5 -160.5t-110 -98.5t-144.5 -31q-122 0 -206 76t-84 214z" />
    <glyph glyph-name="uhungarumlaut" unicode="&#x171;" horiz-adv-x="700" 
d="M454 558h171v-558h-171v82q-53 -88 -169 -88q-96 0 -155.5 64t-59.5 174v326h170v-303q0 -54 28.5 -83.5t78.5 -29.5t78.5 29.5t28.5 83.5v303zM398 810l-105 -209h-105l75 209h135zM486 601h-105l95 209h135z" />
    <glyph glyph-name="Uogonek" unicode="&#x172;" horiz-adv-x="731" 
d="M72 283v419h171v-419q0 -63 31 -97t91 -34t92 34t32 97v419h171v-419q0 -112 -57.5 -181.5t-139.5 -93.5q-46 -13 -46 -34q0 -24 38 -24h113v-93h-143q-53 0 -91.5 31t-38.5 88q0 9 2 23q-99 19 -162 92t-63 192z" />
    <glyph glyph-name="uogonek" unicode="&#x173;" horiz-adv-x="700" 
d="M537 -70q-23 0 -23 -25q0 -12 2.5 -15t4 -5t5.5 -3t6.5 -2t7.5 -1h125v-93h-143q-53 0 -91.5 31t-38.5 88q0 69 62 97v80q-53 -88 -169 -88q-96 0 -155.5 64t-59.5 174v326h170v-303q0 -54 28.5 -83.5t78.5 -29.5t78.5 29.5t28.5 83.5v303h171v-628h-88z" />
    <glyph glyph-name="Ydieresis" unicode="&#x178;" horiz-adv-x="687" 
d="M429 0h-171v226l-243 476h194l135 -317l134 317h194l-243 -476v-226zM243 766q-31 0 -52 21t-21 52t21 52.5t52 21.5t52.5 -21.5t21.5 -52.5t-21.5 -52t-52.5 -21zM443 766q-31 0 -52 21t-21 52t21 52.5t52 21.5t52.5 -21.5t21.5 -52.5t-21.5 -52t-52.5 -21z" />
    <glyph glyph-name="Zacute" unicode="&#x179;" horiz-adv-x="596" 
d="M546 702v-130l-299 -442h299v-130h-496v130l299 442h-299v130h496zM173 860l241 116v-133l-241 -101v118z" />
    <glyph glyph-name="zacute" unicode="&#x17a;" horiz-adv-x="515" 
d="M465 558v-141l-214 -276h214v-141h-415v141l214 276h-214v141h415zM133 714l241 116v-133l-241 -101v118z" />
    <glyph glyph-name="Zdotaccent" unicode="&#x17b;" horiz-adv-x="596" 
d="M297 766q-31 0 -52 21t-21 52t21 52.5t52 21.5t52.5 -21.5t21.5 -52.5t-21.5 -52t-52.5 -21zM546 702v-130l-299 -442h299v-130h-496v130l299 442h-299v130h496z" />
    <glyph glyph-name="zdotaccent" unicode="&#x17c;" horiz-adv-x="515" 
d="M257 620q-31 0 -52 21t-21 52t21 52.5t52 21.5t52.5 -21.5t21.5 -52.5t-21.5 -52t-52.5 -21zM465 558v-141l-214 -276h214v-141h-415v141l214 276h-214v141h415z" />
    <glyph glyph-name="Zcaron" unicode="&#x17d;" horiz-adv-x="596" 
d="M546 702v-130l-299 -442h299v-130h-496v130l299 442h-299v130h496zM298 855l155 87v-118l-155 -84l-155 84v118z" />
    <glyph glyph-name="zcaron" unicode="&#x17e;" horiz-adv-x="515" 
d="M465 558v-141l-214 -276h214v-141h-415v141l214 276h-214v141h415zM258 709l155 87v-118l-155 -84l-155 84v118z" />
    <glyph glyph-name="florin" unicode="&#x192;" horiz-adv-x="336" 
d="M-64 -266h-17l14 145h17q32 0 36 39l53 498h-52l14 142h53l2 21q11 106 73 155t182 49l-15 -145q-34 0 -49.5 -13t-19.5 -46l-2 -21h70l-14 -142h-71l-53 -498q-11 -101 -68.5 -142.5t-152.5 -41.5z" />
    <glyph glyph-name="uni0218" unicode="&#x218;" horiz-adv-x="647" 
d="M260.5 560q-20.5 -17 -20.5 -49t19 -51.5t49.5 -30t68 -20t74.5 -23t67.5 -33.5t49.5 -56.5t19 -87.5q0 -89 -72.5 -152.5t-191 -63.5t-191 57t-72.5 162h182q7 -84 86 -84q37 0 58 19.5t21 49.5t-19 49t-49.5 30t-68 20.5t-74.5 23.5t-67.5 33.5t-49.5 56t-19 86.5
q0 98 73 157t186.5 59t183.5 -51.5t73 -162.5h-186q-4 38 -24.5 58.5t-52.5 20.5t-52.5 -17zM256 -40h131q20 -60 20 -124t-35.5 -105t-104.5 -41v65q52 0 52 66v16h-63v123z" />
    <glyph glyph-name="uni0219" unicode="&#x219;" horiz-adv-x="555" 
d="M37 390q0 74 63 124t170.5 50t173.5 -49t70 -134h-175q-3 29 -20 39.5t-51 10.5q-67 0 -67 -41q0 -37 82 -51q83 -14 151 -43q35 -14 58.5 -46.5t23.5 -79.5q0 -78 -67 -127.5t-169 -49.5t-170 46.5t-74 137.5h175q7 -51 72 -51q30 0 49.5 14t19.5 36t-32.5 35t-78.5 22
t-92.5 22.5t-79 47t-32.5 87.5zM210 -40h131q20 -60 20 -124t-35.5 -105t-104.5 -41v65q52 0 52 66v16h-63v123z" />
    <glyph glyph-name="uni021A" unicode="&#x21a;" horiz-adv-x="608" 
d="M27 572v130h554v-130h-192v-572h-171v572h-191zM236 -40h131q20 -60 20 -124t-35.5 -105t-104.5 -41v65q52 0 52 66v16h-63v123z" />
    <glyph glyph-name="uni021B" unicode="&#x21b;" horiz-adv-x="415" 
d="M312 145h61v-145h-87q-94 0 -145.5 41.5t-51.5 142.5v232h-52v142h52v136h171v-136h112v-142h-112v-232q0 -39 52 -39zM140 -40h131q20 -60 20 -124t-35.5 -105t-104.5 -41v65q52 0 52 66v16h-63v123z" />
    <glyph glyph-name="uni02BC" unicode="&#x2bc;" horiz-adv-x="231" 
d="M40 840h131q20 -60 20 -124t-35.5 -105t-104.5 -41v65q52 0 52 66v16h-63v123z" />
    <glyph glyph-name="circumflex" unicode="&#x2c6;" horiz-adv-x="330" 
d="M320 712v-118l-155 87l-155 -87v118l155 84z" />
    <glyph glyph-name="caron" unicode="&#x2c7;" horiz-adv-x="330" 
d="M165 709l155 87v-118l-155 -84l-155 84v118z" />
    <glyph glyph-name="uni02C9" unicode="&#x2c9;" horiz-adv-x="420" 
d="M10 628v118h400v-118h-400z" />
    <glyph glyph-name="breve" unicode="&#x2d8;" horiz-adv-x="360" 
d="M350 766q0 -78 -46.5 -120t-123.5 -42t-123.5 42t-46.5 120v30h85q0 -33 19 -50t66 -17t66 17t19 50h85v-30z" />
    <glyph glyph-name="dotaccent" unicode="&#x2d9;" horiz-adv-x="167" 
d="M83 620q-31 0 -52 21t-21 52t21 52.5t52 21.5t52.5 -21.5t21.5 -52.5t-21.5 -52t-52.5 -21z" />
    <glyph glyph-name="ring" unicode="&#x2da;" horiz-adv-x="262" 
d="M180 721q0 21 -14 34.5t-35 13.5t-34.5 -13.5t-13.5 -34.5t13.5 -35t34.5 -14t35 14t14 35zM10 720q0 55 34.5 88t86.5 33t86.5 -33t34.5 -88t-34.5 -88t-86.5 -33t-86.5 33t-34.5 88z" />
    <glyph glyph-name="ogonek" unicode="&#x2db;" horiz-adv-x="293" 
d="M155 -68q-23 0 -23 -25q0 -12 2.5 -15t4 -5t5.5 -3t6.5 -2t7.5 -1h125v-93h-143q-53 0 -91.5 31t-38.5 87.5t37.5 83.5t92.5 27h103v-85h-88z" />
    <glyph glyph-name="tilde" unicode="&#x2dc;" horiz-adv-x="410" 
d="M143 758q33 0 73 -22.5t58 -22.5q37 0 43 45h83q-24 -148 -133 -148q-33 0 -73 22.5t-58 22.5q-37 0 -44 -45h-82q24 148 133 148z" />
    <glyph glyph-name="hungarumlaut" unicode="&#x2dd;" horiz-adv-x="443" 
d="M85 810h135l-105 -209h-105zM298 810h135l-125 -209h-105z" />
    <glyph glyph-name="pi" unicode="&#x3c0;" horiz-adv-x="707" 
d="M20 428v130h667v-130h-70v-428h-171v428h-185v-428h-171v428h-70z" />
    <glyph glyph-name="uni0901" unicode="&#x901;" horiz-adv-x="0" 
d="M-117.5 1001q-19.5 -19 -47 -19t-47 19t-19.5 47t19.5 47.5t47 19.5t47 -19.5t19.5 -47.5t-19.5 -47zM73 1024q0 -100 -61 -157t-176 -57t-176 57t-61 157h131q0 -42 28 -69t78 -27t77.5 27t27.5 69h132z" />
    <glyph glyph-name="uni0902" unicode="&#x902;" horiz-adv-x="0" 
d="M-90.5 865.5q-27.5 -27.5 -67 -27.5t-67 27.5t-27.5 67t27.5 67t67 27.5t67 -27.5t27.5 -67t-27.5 -67z" />
    <glyph glyph-name="uni0903" unicode="&#x903;" horiz-adv-x="233" 
d="M116 118q-32 0 -54 22t-22 54t22 54.5t54 22.5t54.5 -22.5t22.5 -54.5t-22.5 -54t-54.5 -22zM116 401q-32 0 -54 22.5t-22 54t22 54t54 22.5t54.5 -22.5t22.5 -54.5t-22.5 -54t-54.5 -22z" />
    <glyph glyph-name="uni0905" unicode="&#x905;" horiz-adv-x="865" 
d="M626 740h259v-140h-95v-600h-164v258h-95q-4 -96 -64.5 -147t-159 -51t-159.5 56t-61 155h157q0 -30 18 -49.5t49 -19.5t48 18.5t17 48.5q0 72 -100 72h-27v144h31q38 0 60.5 16t22.5 44q0 62 -54.5 62t-58.5 -60h-157q0 90 62 146t157.5 56t152.5 -51t57 -136
q0 -51 -24 -89t-64 -55v-3q18 -8 34 -19h158v344z" />
    <glyph glyph-name="uni0906" unicode="&#x906;" horiz-adv-x="1179" 
d="M1199 740v-140h-95v-600h-164v600h-150v-600h-164v258h-95q-4 -96 -64.5 -147t-159 -51t-159.5 56t-61 155h157q0 -30 18 -49.5t49 -19.5t48 18.5t17 48.5q0 72 -100 72h-27v144h31q38 0 60.5 16t22.5 44q0 62 -54.5 62t-58.5 -60h-157q0 90 62 146t157.5 56t152.5 -51
t57 -136q0 -51 -24 -89t-64 -55v-3q18 -8 34 -19h158v344h573z" />
    <glyph glyph-name="uni0907" unicode="&#x907;" horiz-adv-x="584" 
d="M478 411h-155q-88 0 -88 -38q0 -24 21 -30.5t68 -6.5q215 0 215 -174q0 -81 -53 -131t-132.5 -50t-113.5 36v-102h-155v264h155q0 -34 19.5 -53t52 -19t50 13.5t17.5 41t-23 38.5t-61.5 11t-64.5 3t-57.5 13.5t-53 28t-36 50.5t-14.5 78q0 78 58.5 117.5t146.5 39.5h39
v59h-333v140h624v-140h-126v-189z" />
    <glyph glyph-name="uni0908" unicode="&#x908;" horiz-adv-x="584" 
d="M464 805v-65h140v-140h-126v-189h-155q-88 0 -88 -38q0 -24 21 -30.5t68 -6.5q215 0 215 -174q0 -81 -53 -131t-132.5 -50t-113.5 36v-102h-155v264h155q0 -34 19.5 -53t52 -19t50 13.5t17.5 41t-23 38.5t-61.5 11t-64.5 3t-57.5 13.5t-53 28t-36 50.5t-14.5 78
q0 78 58.5 117.5t146.5 39.5h39v59h-333v140h343v63q0 242 198 242q93 0 141 -54.5t48 -153.5h-141q0 73 -48 73q-32 0 -44.5 -25.5t-12.5 -79.5z" />
    <glyph glyph-name="uni0909" unicode="&#x909;" horiz-adv-x="567" 
d="M497 600v-16q0 -81 -18.5 -127.5t-66.5 -66.5v-3q50 -17 80 -58.5t30 -99.5q0 -101 -64 -160.5t-171.5 -59.5t-174.5 66t-67 178h154q0 -44 25 -72t64 -28t60 21.5t21 57.5q0 81 -106 81h-47v143h37q53 0 70.5 28.5t17.5 97.5v18h-368v140h614v-140h-90z" />
    <glyph glyph-name="uni090A" unicode="&#x90a;" horiz-adv-x="848" 
d="M497 600v-16q0 -81 -19 -128t-66 -68v-6h170q111 0 172 -46t61 -142t-67 -142.5t-189 -34.5v125q96 -7 96 51q0 55 -74 55h-60q1 -6 1 -19q0 -101 -64 -160.5t-171.5 -59.5t-174.5 66t-67 178h154q0 -44 25 -72t64 -28t60 21.5t21 57.5q0 81 -106 81h-47v143h37
q53 0 70.5 28.5t17.5 97.5v18h-361v140h887v-140h-370z" />
    <glyph glyph-name="uni090B" unicode="&#x90b;" horiz-adv-x="1042" 
d="M89 7l361 329q-32 54 -109 54q-55 0 -85 -38t-30 -98h-163q0 123 66 198.5t183 75.5q98 0 155 -57v129h-487v140h1082v-140h-431v-132h143q28 0 38 9.5t10 35.5v34h142v-341h-17q-96 -4 -96 -69q0 -32 25.5 -48.5t62 -16.5t64.5 7v-129q-38 -7 -79 -7q-102 0 -165.5 50
t-63.5 140q0 62 34 103.5t93 59.5v40q-30 -2 -48 -2h-143v-334h-164v173l-163 -173h-215v7z" />
    <glyph glyph-name="uni090C" unicode="&#x90c;" horiz-adv-x="911" 
d="M824 -79q-103 0 -165.5 48.5t-62.5 138.5q0 58 31.5 99.5t83.5 58.5q0 105 -84 105q-105 0 -85 -165h-150q18 165 -80 165q-42 0 -63 -27t-21 -74q0 -124 142 -115v-142q-144 -10 -225.5 59.5t-81.5 192.5t63.5 186.5t163.5 63.5q129 0 179 -100q22 47 64 72v113h-553
v140h951v-140h-240v-89q82 -14 132 -76t50 -166q0 -48 -11 -85h-12q-99 0 -99 -69q0 -32 25.5 -48.5t62 -16.5t64.5 7v-129q-38 -7 -79 -7z" />
    <glyph glyph-name="uni090D" unicode="&#x90d;" horiz-adv-x="684" 
d="M704 740v-140h-95v-106q0 -116 -60 -169t-184 -48v149q43 -2 60.5 13.5t17.5 54.5v106h-176v-345q0 -96 86 -96q41 0 63.5 19.5t22.5 56.5h160q0 -102 -66 -159t-184.5 -57t-183 66t-64.5 178l-1 337h-120v140h724zM451 1024h137q0 -101 -58 -157.5t-179 -56.5t-179 56.5
t-58 157.5h137q0 -42 25 -68t75 -26t75 26t25 68z" />
    <glyph glyph-name="uni090F" unicode="&#x90f;" horiz-adv-x="684" 
d="M704 740v-140h-95v-106q0 -116 -60 -169t-184 -48v149q43 -2 60.5 13.5t17.5 54.5v106h-176v-345q0 -96 86 -96q41 0 63.5 19.5t22.5 56.5h160q0 -102 -66 -159t-184.5 -57t-183 66t-64.5 178l-1 337h-120v140h724z" />
    <glyph glyph-name="uni0910" unicode="&#x910;" horiz-adv-x="684" 
d="M704 740v-140h-95v-106q0 -116 -60 -169t-184 -48v149q43 -2 60.5 13.5t17.5 54.5v106h-176v-345q0 -96 86 -96q41 0 63.5 19.5t22.5 56.5h160q0 -102 -66 -159t-184.5 -57t-183 66t-64.5 178l-1 337h-120v140h416q-57 85 -89.5 106.5t-110.5 21.5h-52v126h47
q54 0 87.5 -5t67.5 -18.5t62 -42.5q58 -59 134 -188h162z" />
    <glyph glyph-name="uni0911" unicode="&#x911;" horiz-adv-x="1202" 
d="M1222 740v-140h-95v-600h-164v600h-150v-600h-164v258h-95q-4 -96 -64.5 -147t-159 -51t-159.5 56t-61 155h157q0 -30 18 -49.5t49 -19.5t48 18.5t17 48.5q0 72 -100 72h-27v144h31q38 0 60.5 16t22.5 44q0 62 -54.5 62t-58.5 -60h-157q0 90 62 146t157.5 56t152.5 -51
t57 -136q0 -51 -24 -89t-64 -55v-3q18 -8 34 -19h158v344h573zM1005 1024h137q0 -101 -58 -157.5t-179 -56.5t-179 56.5t-58 157.5h137q0 -42 25 -68t75 -26t75 26t25 68z" />
    <glyph glyph-name="uni0913" unicode="&#x913;" horiz-adv-x="1202" 
d="M1222 740v-140h-95v-600h-164v600h-150v-600h-164v258h-95q-4 -96 -64.5 -147t-159 -51t-159.5 56t-61 155h157q0 -30 18 -49.5t49 -19.5t48 18.5t17 48.5q0 72 -100 72h-27v144h31q38 0 60.5 16t22.5 44q0 62 -54.5 62t-58.5 -60h-157q0 90 62 146t157.5 56t152.5 -51
t57 -136q0 -51 -24 -89t-64 -55v-3q18 -8 34 -19h158v344h340q-57 85 -89.5 106.5t-110.5 21.5h-52v126h47q54 0 87.5 -5t67.5 -18.5t63 -42.5q57 -59 133 -188h87z" />
    <glyph glyph-name="uni0914" unicode="&#x914;" horiz-adv-x="1202" 
d="M1222 740v-140h-95v-600h-164v600h-150v-600h-164v258h-95q-4 -96 -64.5 -147t-159 -51t-159.5 56t-61 155h157q0 -30 18 -49.5t49 -19.5t48 18.5t17 48.5q0 72 -100 72h-27v144h31q38 0 60.5 16t22.5 44q0 62 -54.5 62t-58.5 -60h-157q0 90 62 146t157.5 56t152.5 -51
t57 -136q0 -51 -24 -89t-64 -55v-3q18 -8 34 -19h158v344h332q-62 41 -91.5 48.5t-121.5 7.5h-52v100h47q81 -1 114.5 -8.5t80.5 -43.5q-45 70 -82 86t-108 16h-52v100h47q46 0 72.5 -2.5t57 -13.5t51 -29t48.5 -55q46 -58 126 -206h104z" />
    <glyph glyph-name="uni0915" unicode="&#x915;" horiz-adv-x="987" 
d="M1007 600h-417v-115q47 57 140 57t148.5 -67.5t55.5 -166.5q0 -122 -84.5 -181t-204.5 -34l-1 129q61 -11 93 13t32 69.5t-23 71.5t-66 26t-66.5 -28t-23.5 -75v-299h-157v138q-48 -64 -146 -64t-155.5 68t-57.5 166t57.5 166t154.5 68t147 -64v122h-453v140h1027v-140z
M264.5 239.5q25.5 -25.5 70 -25.5t71.5 25.5t27 68.5t-26.5 68.5t-71.5 25.5t-70.5 -25.5t-25.5 -68.5t25.5 -68.5z" />
    <glyph glyph-name="uni0916" unicode="&#x916;" horiz-adv-x="958" 
d="M-20 740h998v-140h-95v-600h-157v167q-41 -51 -121 -51h-9q-31 -57 -95.5 -88.5t-147.5 -31.5q-131 0 -206.5 73t-75.5 207v131h24q93 2 120.5 36.5t27.5 147.5v9h-263v140zM237 258q0 -122 114 -122q81 0 108 53q-40 55 -40 139t52 142.5t133 58.5t122 -51v122h-318v-8
q0 -157 -33 -219t-138 -76v-39zM588 264q22 -21 58.5 -21t57.5 21.5t21 59t-20 58.5t-57.5 21t-59.5 -21.5t-22 -59t22 -58.5z" />
    <glyph glyph-name="uni0917" unicode="&#x917;" horiz-adv-x="815" 
d="M-20 740h855v-140h-95v-600h-164v600h-132v-196q0 -118 -46 -178.5t-154.5 -60.5t-159 56t-48.5 170h164q0 -26 2.5 -42.5t13.5 -30t28.5 -13.5t27 7t12.5 23q6 25 6 45v220h-310v140z" />
    <glyph glyph-name="uni0918" unicode="&#x918;" horiz-adv-x="698" 
d="M718 740v-140h-95v-600h-165v163q-59 -65 -175 -65q-118 0 -183 80q-34 42 -34 96.5t26.5 90.5t66.5 53v6q-43 20 -62 59.5t-19 116.5h-98v140h738zM458 358v242h-215q0 -57 15.5 -84.5t62.5 -27.5h48v-132h-51q-87 0 -87 -61q0 -32 25 -47.5t62 -15.5q60 0 100 34t40 92
z" />
    <glyph glyph-name="uni0919" unicode="&#x919;" horiz-adv-x="716" 
d="M-20 740h756v-140h-261v-189h-155q-88 0 -88 -38q0 -24 21 -30.5t68 -6.5q217 0 217 -174q0 -84 -62 -133t-170 -49t-178 52.5t-74 146.5h162q3 -36 27 -54t62 -18q71 0 71 52q0 29 -22 40t-69 11q-219 0 -219 174q0 78 58.5 117.5t146.5 39.5h39v59h-330v140zM541.5 417
q25.5 25 61 25t60.5 -25t25 -60.5t-25 -61t-60.5 -25.5t-61 25.5t-25.5 61t25.5 60.5z" />
    <glyph glyph-name="uni091A" unicode="&#x91a;" horiz-adv-x="753" 
d="M-20 740h793v-140h-95v-600h-165v145q-50 -63 -150 -63t-164 51t-64 139q0 65 42 110h-127v129h371v-129h-40q-39 0 -65.5 -21t-26.5 -60.5t28.5 -61t80 -21.5t83.5 41t32 110v231h-533v140z" />
    <glyph glyph-name="uni091B" unicode="&#x91b;" horiz-adv-x="830" 
d="M850 600h-174v-75q102 -46 102 -190t-91 -224.5t-274 -80.5q-195 0 -288 90q-50 49 -50 118q0 110 95 156v6q-50 23 -69 68t-19 123v9h-102v140h870v-140zM247 600v-10q0 -69 16 -97.5t67 -28.5h14v-132h-21q-34 0 -57.5 -19.5t-23.5 -59t48 -63t119 -23.5q230 0 230 167
q0 39 -14 63.5t-47 24.5t-45.5 -36t-8.5 -124h-137q-9 140 24.5 202t108.5 75l1 61h-274z" />
    <glyph glyph-name="uni091C" unicode="&#x91c;" horiz-adv-x="857" 
d="M-20 740h897v-140h-95v-600h-164v366h-105v-36q0 -234 -226 -234q-123 0 -181.5 65.5t-58.5 168.5v167h164v-140q0 -61 16 -91t58 -30t54.5 29t12.5 92v140h266v103h-638v140z" />
    <glyph glyph-name="uni091D" unicode="&#x91d;" horiz-adv-x="878" 
d="M898 740v-140h-95v-600h-164v226h-126q10 -15 10 -40q0 -78 -48 -126.5t-126.5 -48.5t-114.5 33v-104h-155v264h155q0 -67 74 -67q30 0 47.5 13.5t17.5 33.5t-5.5 29t-20.5 13q-19 5 -58.5 5t-65 2.5t-57.5 12t-53 26.5t-35.5 49.5t-14.5 77.5q0 78 58 115t147 37h39v49
h-327v140h918zM639 356v244h-167v-179h-155q-46 0 -67 -6t-21 -24t11 -25.5t24 -8.5t42 -1h333z" />
    <glyph glyph-name="uni091E" unicode="&#x91e;" horiz-adv-x="877" 
d="M-20 740h917v-140h-95v-600h-164v232h-104q-20 -82 -82.5 -128t-159.5 -46t-161 50t-75 135h160q7 -21 28.5 -33.5t58 -12.5t59.5 29t23 74t-23 74t-60 29q-71 0 -86 -46h-160q11 85 75 135t160.5 50t159 -45t82.5 -125h105v228h-658v140z" />
    <glyph glyph-name="uni091F" unicode="&#x91f;" horiz-adv-x="649" 
d="M460 404h-82q-75 0 -120 -30.5t-45 -90t35 -92t93 -32.5t89.5 33t31.5 89h156q0 -125 -74.5 -194t-203 -69t-208.5 70t-80 186.5t66.5 186t177.5 81.5v58h-316v140h689v-140h-209v-196z" />
    <glyph glyph-name="uni0920" unicode="&#x920;" horiz-adv-x="671" 
d="M337 406q-56 0 -89 -33t-33 -87t33 -87t89 -33t89 33t33 87t-33 87t-89 33zM621 286q0 -118 -80 -187.5t-204 -69.5t-204 69.5t-80 187.5q0 96 55 161t147 87v66h-275v140h711v-140h-272v-66q92 -22 147 -87t55 -161z" />
    <glyph glyph-name="uni0921" unicode="&#x921;" horiz-adv-x="568" 
d="M475 411h-155q-88 0 -88 -38q0 -24 21 -30.5t68 -6.5q217 0 217 -174q0 -84 -62 -133t-170 -49t-178 52.5t-74 146.5h162q3 -36 27 -54t62 -18q71 0 71 52q0 29 -22 40t-69 11q-219 0 -219 174q0 78 58.5 117.5t146.5 39.5h39v59h-330v140h608v-140h-113v-189z" />
    <glyph glyph-name="uni0922" unicode="&#x922;" horiz-adv-x="644" 
d="M494 410h-106q-81 -1 -130 -39t-49 -105q0 -138 167 -138q49 0 78 17.5t29 49.5q0 48 -42.5 48t-42.5 -48h-136q-2 83 42.5 127.5t131 44.5t141.5 -45.5t55 -121.5q0 -102 -74.5 -156t-187.5 -54q-142 0 -232 72t-90 201t76.5 199.5t205.5 81.5v56h-350v140h684v-140
h-170v-190z" />
    <glyph glyph-name="uni0923" unicode="&#x923;" horiz-adv-x="899" 
d="M-20 740h939v-140h-95v-600h-164v600h-123v-233q0 -108 -56 -169.5t-171 -61.5t-171 61.5t-56 169.5v233h-103v140zM375 360v240h-130v-240q0 -84 65 -84t65 84z" />
    <glyph glyph-name="uni0924" unicode="&#x924;" horiz-adv-x="701" 
d="M353 129v-129h-32q-121 0 -191.5 58t-70.5 185.5t79 187.5t206 60h118v109h-482v140h741v-140h-95v-600h-164v351h-115q-57 0 -90 -28t-33 -84q0 -110 129 -110z" />
    <glyph glyph-name="uni0925" unicode="&#x925;" horiz-adv-x="789" 
d="M809 600h-95v-600h-164v175q-25 -41 -78.5 -69t-127.5 -28q-156 0 -231 106t-51 284h114q148 0 148 84q0 26 -14 40.5t-38.5 14.5t-37.5 -18.5t-11 -50.5h-149q-4 99 54.5 154t147 55t147 -50.5t58.5 -145.5t-66 -149t-183 -55q-6 -55 29 -92t112 -37t127 58t50 163v301
h259v-140z" />
    <glyph glyph-name="uni0926" unicode="&#x926;" horiz-adv-x="613" 
d="M551 -28h-163v116q-33 -33 -104 -33q-96 0 -161 59.5t-65 177t76.5 179t199.5 61.5h23v68h-377v140h653v-140h-112v-213h-177q-55 0 -88.5 -27.5t-33.5 -74t26 -70t68 -23.5t64 19.5t22 52.5h149v-292z" />
    <glyph glyph-name="uni0927" unicode="&#x927;" horiz-adv-x="740" 
d="M757 740v-140h-92v-600h-165v148q-64 -70 -192 -70q-95 0 -164 49.5t-69 135.5q0 114 108 153v6q-52 17 -83.5 59t-31.5 110.5t51 113.5t136.5 45t133.5 -53.5t42 -138.5h-129q1 25 -11.5 38.5t-32.5 13.5t-32.5 -12.5t-12.5 -32.5q0 -42 36 -60.5t88 -18.5h62v-132h-40
q-119 0 -119 -70q0 -34 29.5 -52.5t74.5 -18.5q69 0 112.5 44t43.5 117v366h257z" />
    <glyph glyph-name="uni0928" unicode="&#x928;" horiz-adv-x="810" 
d="M255 349q-36 0 -57.5 -18.5t-21.5 -53t22 -56t57 -21.5t54.5 21t19.5 56q0 72 -74 72zM571 0v351h-140q35 -39 35 -104q0 -88 -57 -137.5t-155.5 -49.5t-162 59.5t-63.5 160t68 155t178 54.5h297v111h-591v140h850v-140h-95v-600h-164z" />
    <glyph glyph-name="uni092A" unicode="&#x92a;" horiz-adv-x="693" 
d="M-20 740h733v-140h-95v-600h-165v228q-49 -62 -151.5 -62t-162 73t-59.5 187v174h-100v140zM245 600v-178q0 -117 106 -117q49 0 75.5 31t26.5 87v177h-208z" />
    <glyph glyph-name="uni092B" unicode="&#x92b;" horiz-adv-x="972" 
d="M992 600h-397v-124q47 55 139 55t148 -63.5t56 -160.5q0 -118 -72 -180.5t-193 -47.5l-1 134q109 -5 109 89q0 40 -24.5 64t-67 24t-68.5 -29t-26 -74v-287h-165v244q-45 -58 -144 -58t-154 74t-55 190v150h-97v140h1012v-140zM242 600v-154q0 -59 20.5 -90t75.5 -31
q92 0 92 128v147h-188z" />
    <glyph glyph-name="uni092C" unicode="&#x92c;" horiz-adv-x="667" 
d="M-20 740h707v-140h-95v-600h-157v115q-52 -61 -157 -61t-174 70t-69 179t69 179t173.5 70t157.5 -62v110h-455v140zM444 303q0 57 -37.5 92.5t-87 35.5t-83.5 -20l205 -137q3 14 3 29zM177 303q0 -59 38 -93.5t91 -34.5t85 23l-209 140q-5 -18 -5 -35z" />
    <glyph glyph-name="uni092D" unicode="&#x92d;" horiz-adv-x="868" 
d="M888 740v-140h-95v-600h-164v332h-120v-40q0 -111 -54.5 -172.5t-156 -61.5t-166 57.5t-64.5 154.5t65.5 146.5t177.5 49.5h44v46q0 74 -19 88q-10 8 -26 8t-26 -7.5t-14 -24.5q-5 -27 -5 -64h-164q-3 238 206 238q108 0 155 -62.5t47 -178.5v-43h120v274h259zM355 286
v46h-42q-41 0 -67 -17.5t-26 -50.5t19.5 -50.5t50.5 -17.5q65 0 65 90z" />
    <glyph glyph-name="uni092E" unicode="&#x92e;" horiz-adv-x="860" 
d="M880 740v-140h-95v-600h-164v332h-125v-40q0 -111 -54.5 -172.5t-156 -61.5t-166 57.5t-64.5 154.5t65.5 146.5t177.5 49.5h44v134h-362v140h900zM342 286v46h-42q-41 0 -67 -17.5t-26 -50.5t19.5 -50.5t50.5 -17.5q65 0 65 90zM621 466v134h-125v-134h125z" />
    <glyph glyph-name="uni092F" unicode="&#x92f;" horiz-adv-x="758" 
d="M-20 740h798v-140h-95v-600h-164v151q-58 -73 -177 -73q-147 0 -218.5 99t-62.5 261q54 0 86 9t46.5 31t18.5 44t4 62v16h-236v140zM377 600v-23q0 -113 -29.5 -164t-116.5 -62q0 -60 37 -96.5t106 -36.5t107 41.5t38 111.5v229h-142z" />
    <glyph glyph-name="uni0930" unicode="&#x930;" horiz-adv-x="525" 
d="M471 600v-30q0 -76 -10 -125t-37.5 -84.5t-74.5 -51t-122 -17.5v-80q0 -36 11 -56t42 -20q50 0 50 76h160q1 -216 -210 -216q-106 0 -162.5 53.5t-56.5 160.5v211h61q62 0 80.5 2.5t38 7t25 9t16 13.5t13 19t6.5 25q5 19 5 72v31h-326v140h565v-140h-74z" />
    <glyph glyph-name="uni0931" unicode="&#x931;" horiz-adv-x="525" 
d="M471 600v-30q0 -76 -10 -125t-37.5 -84.5t-74.5 -51t-122 -17.5v-80q0 -36 11 -56t42 -20q50 0 50 76h160q1 -216 -210 -216q-106 0 -162.5 53.5t-56.5 160.5v211h61q62 0 80.5 2.5t38 7t25 9t16 13.5t13 19t6.5 25q5 19 5 72v31h-326v140h565v-140h-74zM-68.5 20.5
q27.5 27.5 67 27.5t67 -27.5t27.5 -67t-27.5 -67t-67 -27.5t-67 27.5t-27.5 67t27.5 67z" />
    <glyph glyph-name="uni0932" unicode="&#x932;" horiz-adv-x="911" 
d="M312 371q-42 0 -63 -27t-21 -74q0 -124 142 -115v-142q-144 -10 -225.5 59.5t-81.5 192.5t63.5 186.5t163.5 63.5q129 0 179 -100q22 47 64 72v113h-553v140h951v-140h-240v-89q82 -14 132 -76t50 -166q0 -127 -81.5 -196.5t-225.5 -59.5v142q142 -9 142 115
q0 47 -21.5 74t-62.5 27q-102 0 -82 -165h-150q18 165 -80 165z" />
    <glyph glyph-name="uni0933" unicode="&#x933;" horiz-adv-x="927" 
d="M947 600h-217v-109q78 -18 125.5 -78t47.5 -157t-66 -161.5t-167 -64.5q-62 0 -115.5 27.5t-79.5 81.5q-22 -55 -78 -82t-115 -27q-102 0 -168 64t-66 170t66 170t168 64q60 0 113.5 -26t80.5 -84q31 66 96 93v119h-592v140h967v-140zM302 170q42 0 68 26t26 68
q-1 42 -26.5 68t-68 26t-68 -26t-25.5 -68.5t26 -68t68 -25.5zM650 170q42 0 68 26t26 68t-26 68t-68 26t-68 -26.5t-26 -68.5t26 -67.5t68 -25.5z" />
    <glyph glyph-name="uni0935" unicode="&#x935;" horiz-adv-x="645" 
d="M-20 740h685v-140h-95v-600h-157v124q-53 -65 -150 -65t-161.5 71t-64.5 173t64.5 173t162 71t149.5 -66v119h-433v140zM413 303v1q0 49 -28.5 78t-78 29t-79.5 -30t-30 -78t30 -78t79.5 -30t78 29.5t28.5 78.5z" />
    <glyph glyph-name="uni0936" unicode="&#x936;" horiz-adv-x="853" 
d="M873 600h-95v-600h-165v740h260v-140zM541 532q0 -244 -307 -244v-74q0 -78 69.5 -78t66.5 93h160q2 -233 -224 -233q-110 0 -174 60t-64 166v198h107q148 0 185 52q16 24 16 59q0 76 -65 76q-37 0 -53 -26t-14 -67h-164q-4 99 53.5 166t169.5 67t175 -56.5t63 -158.5z
" />
    <glyph glyph-name="uni0937" unicode="&#x937;" horiz-adv-x="701" 
d="M-20 740h741v-140h-95v-600h-165v210q-47 -64 -154.5 -64t-168 66.5t-60.5 177.5v210h-98v140zM461 600h-218v-1l218 -146v147zM243 404q0 -55 28.5 -87t91 -32t86.5 59l-206 137v-77z" />
    <glyph glyph-name="uni0938" unicode="&#x938;" horiz-adv-x="823" 
d="M843 740v-140h-95v-600h-164v289h-355v-87q0 -66 58 -66q34 0 45.5 22t12.5 60h160q-4 -112 -51 -167t-159 -55t-172 57t-60 157v191h81q79 0 103 33t24 114v52h-291v140h863zM584 425v175h-148v-62q0 -63 -14 -113h162z" />
    <glyph glyph-name="uni0939" unicode="&#x939;" horiz-adv-x="618" 
d="M487 420h-164q-34 0 -51.5 -8t-17.5 -31t20 -34q22 3 47 3q102 0 168.5 -51t66.5 -140h-160q0 25 -21 40.5t-56.5 15.5t-59.5 -21.5t-24 -62.5t24 -64t59.5 -23t56.5 15t21 41h160q0 -89 -66.5 -140t-176 -51t-175.5 59.5t-66 164t70 162.5q-50 42 -50 109t51 107t146 40
h33v49h-342v140h658v-140h-151v-180z" />
    <glyph glyph-name="uni093C" unicode="&#x93c;" horiz-adv-x="0" 
d="M-209.5 -244.5q-27.5 -27.5 -67 -27.5t-67 27.5t-27.5 67t27.5 67t67 27.5t67 -27.5t27.5 -67t-27.5 -67z" />
    <glyph glyph-name="uni093D" unicode="&#x93d;" horiz-adv-x="604" 
d="M340.5 520.5q-11.5 -8.5 -11.5 -25.5t29 -50t63.5 -66.5t63.5 -86.5t29 -114.5t-55 -97t-153 -35.5h-253v140h215q25 0 38 1q33 3 33 27q0 20 -30 53.5t-65.5 67t-65.5 86.5t-30 107q0 69 53 107t138 38h208v-140h-145q-23 0 -36.5 -1.5t-25 -10z" />
    <glyph glyph-name="uni093E" unicode="&#x93e;" 
d="M334 600h-95v-600h-164v600h-95v140h354v-140z" />
    <glyph glyph-name="uni093F" unicode="&#x93f;" 
d="M77 740v2q0 141 113 216.5t307 75.5t307 -75.5t113 -216.5v-45h-162v32q0 60 -37 99.5t-92.5 55t-128.5 15.5q-111 0 -182 -38t-76 -121h95v-140h-95v-600h-164v600h-95v140h97z" />
    <glyph glyph-name="uni0940" unicode="&#x940;" 
d="M228 740h106v-140h-95v-600h-164v600h-95v140h91v25q0 49 -3.5 74t-19.5 43t-48 18t-48 -18t-19.5 -43t-3.5 -74v-68h-157v72q0 129 50.5 197t177 68t177.5 -69t51 -196v-29z" />
    <glyph glyph-name="uni0941" unicode="&#x941;" horiz-adv-x="0" 
d="M-51.5 21.5q64.5 -51.5 64.5 -146.5t-58.5 -147t-168 -52t-181 57t-75.5 177h146q4 -105 113 -105q83 0 83 65q0 37 -25.5 52t-85.5 14v127q123 10 187.5 -41.5z" />
    <glyph glyph-name="uni0942" unicode="&#x942;" horiz-adv-x="0" 
d="M-345 -278q-59 46 -59 137.5t61 140t141.5 48.5t132 -22t80 -55t44.5 -83q26 -82 22 -196h-137q5 119 -23 175.5t-111 56.5t-83 -65q0 -31 23.5 -44.5t61.5 -10.5v-120q-94 -8 -153 38z" />
    <glyph glyph-name="uni0943" unicode="&#x943;" horiz-adv-x="0" 
d="M-84 0h-16q-75 0 -75 -67t79 -67q21 0 40 7v-128q-25 -9 -64 -9q-90 0 -150.5 49t-60.5 138.5t57.5 140t160.5 50.5q19 0 29 -1v-113z" />
    <glyph glyph-name="uni0944" unicode="&#x944;" horiz-adv-x="0" 
d="M-45 -436h-43q-96 0 -164 33q-77 37 -77 120q0 44 27 76t69 46q-41 11 -68.5 42t-27.5 77.5t36.5 79.5t81.5 43.5t97 10.5h29v-92h-9q-40 -1 -60 -10.5t-20 -38.5t23.5 -38t62.5 -9h43v-122h-43q-44 0 -65 -9t-21 -39t23.5 -39t62.5 -9h43v-122z" />
    <glyph glyph-name="uni0945" unicode="&#x945;" horiz-adv-x="0" 
d="M73 1024q0 -101 -58 -157.5t-179 -56.5t-179 56.5t-58 157.5h137q0 -42 25 -68t75 -26t75 26t25 68h137z" />
    <glyph glyph-name="uni0947" unicode="&#x947;" horiz-adv-x="0" 
d="M-431 868h-52v126h47q68 0 106.5 -7.5t80.5 -35t78.5 -77.5t88.5 -140h-145q-60 90 -92.5 112t-111.5 22z" />
    <glyph glyph-name="uni0948" unicode="&#x948;" horiz-adv-x="0" 
d="M-483 1046h47q46 0 72.5 -2.5t57.5 -14t51 -29.5t49.5 -55t57.5 -85t70 -126h-131q-68 46 -97.5 54t-124.5 8h-52v100h47q81 -1 114.5 -8.5t80.5 -43.5q-45 70 -82 86t-108 16h-52v100z" />
    <glyph glyph-name="uni0949" unicode="&#x949;" 
d="M391 1024q0 -101 -58 -157.5t-179 -56.5t-179 56.5t-58 157.5h137q0 -42 25 -68t75 -26t75 26t25 68h137zM334 600h-95v-600h-164v600h-95v140h354v-140z" />
    <glyph glyph-name="uni094B" unicode="&#x94b;" 
d="M334 740v-140h-95v-600h-164v600h-95v140h98q-57 85 -89.5 106.5t-110.5 21.5h-52v126h47q54 0 87.5 -5t67.5 -18.5t62 -42.5q58 -59 134 -188h110z" />
    <glyph glyph-name="uni094C" unicode="&#x94c;" horiz-adv-x="289" 
d="M334 740v-140h-95v-600h-164v600h-95v140h123q-62 41 -91.5 48.5t-121.5 7.5h-52v100h47q81 -1 114.5 -8.5t80.5 -43.5q-45 70 -82 86t-108 16h-52v100h47q46 0 72.5 -2.5t57 -13.5t51 -29t48.5 -55q46 -58 126 -206h94z" />
    <glyph glyph-name="uni094D" unicode="&#x94d;" horiz-adv-x="0" 
d="M63 -271h-161l-126 217h154z" />
    <glyph glyph-name="uni0950" unicode="&#x950;" horiz-adv-x="795" 
d="M434 375h60q54 0 74.5 16.5t20.5 65.5q0 119 48.5 176t166 57t170.5 -59.5t53 -184.5v-114q0 -177 -89 -248.5t-300 -40.5v142q172 -20 206 51q17 35 17 103v115q0 49 -12.5 72.5t-44.5 23.5t-43.5 -22.5t-11.5 -73.5q0 -115 -48.5 -162.5t-165.5 -50.5q1 -5 1 -16
q0 -102 -63.5 -158.5t-163.5 -56.5t-163.5 58.5t-63.5 157.5h157q0 -34 19.5 -54t53 -20t51.5 19.5t18 52.5q0 77 -105 77h-27v144h31q39 0 64 17.5t25 48t-15.5 48.5t-45 18t-45.5 -17.5t-18 -47.5h-157q0 94 63.5 150.5t160 56.5t156 -53.5t59.5 -138.5q0 -50 -26.5 -91
t-66.5 -58v-3zM661 939h132q0 -100 -61 -157t-176 -57t-176 57t-61 157h131q0 -42 28 -69t78 -27t77.5 27t27.5 69zM602.5 916q-19.5 -19 -47 -19t-47 19t-19.5 47t19.5 47.5t47 19.5t47 -19.5t19.5 -47.5t-19.5 -47z" />
    <glyph glyph-name="uni0958" unicode="&#x958;" horiz-adv-x="987" 
d="M1007 600h-417v-115q47 57 140 57t148.5 -67.5t55.5 -166.5q0 -122 -84.5 -181t-204.5 -34l-1 129q61 -11 93 13t32 69.5t-23 71.5t-66 26t-66.5 -28t-23.5 -75v-299h-157v138q-48 -64 -146 -64t-155.5 68t-57.5 166t57.5 166t154.5 68t147 -64v122h-453v140h1027v-140z
M264.5 239.5q25.5 -25.5 70 -25.5t71.5 25.5t27 68.5t-26.5 68.5t-71.5 25.5t-70.5 -25.5t-25.5 -68.5t25.5 -68.5zM184.5 4.5q27.5 27.5 67 27.5t67 -27.5t27.5 -67t-27.5 -67t-67 -27.5t-67 27.5t-27.5 67t27.5 67z" />
    <glyph glyph-name="uni0959" unicode="&#x959;" horiz-adv-x="958" 
d="M-20 740h998v-140h-95v-600h-157v167q-41 -51 -121 -51h-9q-31 -57 -95.5 -88.5t-147.5 -31.5q-131 0 -206.5 73t-75.5 207v131h24q93 2 120.5 36.5t27.5 147.5v9h-263v140zM237 258q0 -122 114 -122q81 0 108 53q-40 55 -40 139t52 142.5t133 58.5t122 -51v122h-318v-8
q0 -157 -33 -219t-138 -76v-39zM588 264q22 -21 58.5 -21t57.5 21.5t21 59t-20 58.5t-57.5 21t-59.5 -21.5t-22 -59t22 -58.5zM302.5 -108.5q27.5 27.5 67 27.5t67 -27.5t27.5 -67t-27.5 -67t-67 -27.5t-67 27.5t-27.5 67t27.5 67z" />
    <glyph glyph-name="uni095A" unicode="&#x95a;" horiz-adv-x="815" 
d="M-20 740h855v-140h-95v-600h-164v600h-132v-196q0 -118 -46 -178.5t-154.5 -60.5t-159 56t-48.5 170h164q0 -26 2.5 -42.5t13.5 -30t28.5 -13.5t27 7t12.5 23q6 25 6 45v220h-310v140zM194.5 1.5q27.5 27.5 67 27.5t67 -27.5t27.5 -67t-27.5 -67t-67 -27.5t-67 27.5
t-27.5 67t27.5 67z" />
    <glyph glyph-name="uni095B" unicode="&#x95b;" horiz-adv-x="857" 
d="M-20 740h897v-140h-95v-600h-164v366h-105v-36q0 -234 -226 -234q-123 0 -181.5 65.5t-58.5 168.5v167h164v-140q0 -61 16 -91t58 -30t54.5 29t12.5 92v140h266v103h-638v140zM199.5 -49.5q27.5 27.5 67 27.5t67 -27.5t27.5 -67t-27.5 -67t-67 -27.5t-67 27.5t-27.5 67
t27.5 67z" />
    <glyph glyph-name="uni095C" unicode="&#x95c;" horiz-adv-x="568" 
d="M475 411h-155q-88 0 -88 -38q0 -24 21 -30.5t68 -6.5q217 0 217 -174q0 -84 -62 -133t-170 -49t-178 52.5t-74 146.5h162q3 -36 27 -54t62 -18q71 0 71 52q0 29 -22 40t-69 11q-219 0 -219 174q0 78 58.5 117.5t146.5 39.5h39v59h-330v140h608v-140h-113v-189z
M240.5 -102.5q27.5 27.5 67 27.5t67 -27.5t27.5 -67t-27.5 -67t-67 -27.5t-67 27.5t-27.5 67t27.5 67z" />
    <glyph glyph-name="uni095D" unicode="&#x95d;" horiz-adv-x="644" 
d="M494 410h-106q-81 -1 -130 -39t-49 -105q0 -138 167 -138q49 0 78 17.5t29 49.5q0 48 -42.5 48t-42.5 -48h-136q-2 83 42.5 127.5t131 44.5t141.5 -45.5t55 -121.5q0 -102 -74.5 -156t-187.5 -54q-142 0 -232 72t-90 201t76.5 199.5t205.5 81.5v56h-350v140h684v-140
h-170v-190zM305.5 -101.5q27.5 27.5 67 27.5t67 -27.5t27.5 -67t-27.5 -67t-67 -27.5t-67 27.5t-27.5 67t27.5 67z" />
    <glyph glyph-name="uni095E" unicode="&#x95e;" horiz-adv-x="972" 
d="M992 600h-397v-124q47 55 139 55t148 -63.5t56 -160.5q0 -118 -72 -180.5t-193 -47.5l-1 134q109 -5 109 89q0 40 -24.5 64t-67 24t-68.5 -29t-26 -74v-287h-165v244q-45 -58 -144 -58t-154 74t-55 190v150h-97v140h1012v-140zM242 600v-154q0 -59 20.5 -90t75.5 -31
q92 0 92 128v147h-188zM182.5 44.5q27.5 27.5 67 27.5t67 -27.5t27.5 -67t-27.5 -67t-67 -27.5t-67 27.5t-27.5 67t27.5 67z" />
    <glyph glyph-name="uni0960" unicode="&#x960;" horiz-adv-x="1040" 
d="M89 7l361 329q-32 54 -109 54q-55 0 -85 -38t-30 -98h-163q0 123 66 198.5t183 75.5q98 0 155 -57v129h-487v140h1080v-140h-429v-132h143q28 0 38 9.5t10 35.5v34h142v-363h-29q-24 -1 -39 -3.5t-27 -13t-12 -30t16 -30t31.5 -12t41.5 -1.5h40v-122h-40q-43 0 -66 -11
t-23 -42q0 -50 82 -50q41 0 89 12v-121q-40 -11 -102 -11q-95 0 -159.5 37t-64.5 117q0 45 27 78.5t69 47.5q-41 11 -68.5 40.5t-27.5 70.5q0 96 120 126v70q-30 -2 -48 -2h-143v-334h-164v173l-163 -173h-215v7z" />
    <glyph glyph-name="uni0961" unicode="&#x961;" horiz-adv-x="913" 
d="M691 600v-89q82 -14 132 -75.5t50 -162.5q0 -42 -11 -79h-11q-24 -1 -39 -3.5t-27 -13t-12 -30t16 -30t31.5 -12t41.5 -1.5h40v-122h-40q-43 0 -66 -11t-23 -42q0 -50 82 -50q41 0 89 12v-121q-40 -11 -102 -11q-95 0 -159.5 37t-64.5 117q0 45 27 78.5t69 47.5
q-41 11 -68.5 40.5t-27.5 70.5q0 86 93 116q2 105 -84 105q-105 0 -85 -165h-150q18 165 -80 165q-42 0 -63 -27t-21 -74q0 -124 142 -115v-142q-144 -10 -225.5 59.5t-81.5 192.5t63.5 186.5t163.5 63.5q129 0 179 -100q22 47 64 72v113h-553v140h951v-140h-240z" />
    <glyph glyph-name="uni0962" unicode="&#x962;" horiz-adv-x="0" 
d="M509 36q76 0 120.5 -51t44.5 -130q0 -32 -7 -58h-9q-68 0 -68 -48q0 -22 19 -33t45.5 -11t40.5 4v-99q-24 -5 -51 -5q-80 0 -125.5 35t-45.5 99q0 41 22 72t57 42q3 29 -10 50.5t-43 21.5q-72 0 -53 -113h-124q7 70 -4 92t-41 22q-58 0 -58 -70q0 -86 98 -79v-108
q-101 -8 -161.5 42t-60.5 139.5t44 137t129 47.5t117 -72q11 29 41.5 51t82.5 22z" />
    <glyph glyph-name="uni0963" unicode="&#x963;" horiz-adv-x="0" 
d="M603 -214q-9 -7 -9 -25t17.5 -24.5t51.5 -6.5h20v-92h-20q-36 0 -52.5 -7t-16.5 -30q0 -36 62 -36q33 0 59 12v-91q-40 -11 -95 -11t-98 27t-43 85q0 39 21.5 62.5t55.5 30.5q-77 19 -77 86.5t73 86.5q3 29 -10 50.5t-43 21.5q-72 0 -53 -113h-124q7 70 -4 92t-41 22
q-58 0 -58 -70q0 -86 98 -79v-108q-101 -8 -161.5 42t-60.5 139.5t44 137t129 47.5t117 -72q11 29 41.5 51t82.5 22q76 0 120.5 -51t44.5 -130q0 -32 -7 -58h-9q-25 -1 -35.5 -2.5t-19.5 -8.5z" />
    <glyph glyph-name="uni0964" unicode="&#x964;" horiz-adv-x="334" 
d="M140 740h164v-740h-164v740z" />
    <glyph glyph-name="uni0965" unicode="&#x965;" horiz-adv-x="609" 
d="M415 740h164v-740h-164v740zM140 740h164v-740h-164v740z" />
    <glyph glyph-name="uni0966" unicode="&#x966;" horiz-adv-x="652" 
d="M326 725q76 0 131.5 -27t87.5 -77t47 -113.5t15 -143.5t-15 -143.5t-47 -113.5t-87.5 -77t-131.5 -27t-131.5 27t-87.5 77t-47 113.5t-15 143.5t15 143.5t47 113.5t87.5 77t131.5 27zM326 565q-29 0 -50.5 -11.5t-33 -28.5t-18.5 -45t-9 -54t-2 -62t2 -62t9 -54t18.5 -45
t33 -28.5t50.5 -11.5t50.5 11.5t33 28.5t18.5 45t9 54t2 62t-2 62t-9 54t-18.5 45t-33 28.5t-50.5 11.5z" />
    <glyph glyph-name="uni0967" unicode="&#x967;" horiz-adv-x="421" 
d="M149 0v551h-121v159h298v-710h-177z" />
    <glyph glyph-name="uni0968" unicode="&#x968;" horiz-adv-x="571" 
d="M39 10v127q27 24 76 66t76 65.5t63 59t54 60.5q47 65 47 113q0 85 -75 85q-36 0 -57 -25.5t-21 -73.5h-165q0 120 69.5 181.5t182.5 61.5t176 -64.5t63 -155.5q0 -69 -30 -121q-18 -30 -31 -51t-43 -52t-44 -45t-51.5 -48t-47.5 -44h260v-139h-502z" />
    <glyph glyph-name="uni0969" unicode="&#x969;" horiz-adv-x="605" 
d="M296 598q-69 0 -76 -74h-166q0 105 67.5 162.5t179.5 57.5t174 -55t62 -140q0 -67 -32.5 -109t-66.5 -56v-4q112 -43 112 -173q0 -98 -65.5 -154.5t-181 -56.5t-188.5 59t-73 176h166q1 -44 25 -69.5t66.5 -25.5t64 23t21.5 65.5t-30 63.5t-98 21h-32v139h32
q114 0 114 80q0 32 -20.5 51t-54.5 19z" />
    <glyph glyph-name="uni096A" unicode="&#x96a;" horiz-adv-x="677" 
d="M397 278v248l-158 -248h158zM385 0v130h-336v138l316 452h191v-442h82v-148h-82v-130h-171z" />
    <glyph glyph-name="uni096B" unicode="&#x96b;" horiz-adv-x="650" 
d="M92 731h456v-150h-301v-128q45 40 114.5 40t117.5 -22.5t73 -59.5q49 -73 49 -157q0 -117 -69 -185.5t-189 -68.5t-189.5 57.5t-78.5 148.5h169q5 -29 31 -47.5t70 -18.5t67.5 29.5t23.5 78.5t-24.5 76t-65.5 27t-62.5 -17.5t-26.5 -43.5h-165v441z" />
    <glyph glyph-name="uni096C" unicode="&#x96c;" horiz-adv-x="637" 
d="M393.5 309.5q-24.5 29.5 -71 29.5t-72.5 -26t-26 -72.5t29.5 -74t73 -27.5t67.5 27.5t24 70.5t-24.5 72.5zM322 607q-110 0 -111 -188q24 31 66 46t84 15q100 0 161.5 -62t61.5 -174t-66 -178t-179 -66q-146 0 -213 89t-67 281q0 377 266 377q110 0 169.5 -59.5
t70.5 -148.5h-159q-14 68 -84 68z" />
    <glyph glyph-name="uni096D" unicode="&#x96d;" horiz-adv-x="560" 
d="M41 721h482v-126l-260 -595h-185l273 581h-310v140z" />
    <glyph glyph-name="uni096E" unicode="&#x96e;" horiz-adv-x="648" 
d="M396.5 296q-25.5 27 -73 27t-76 -26t-28.5 -70.5t27.5 -72.5t76 -28t74 28.5t25.5 71.5t-25.5 70zM386.5 591q-23.5 23 -61.5 23t-62.5 -23t-24.5 -62.5t25 -63t61 -23.5t61 24t25 63t-23.5 62zM71 554q0 82 66 141t187 59t186.5 -59.5t65.5 -141.5q0 -104 -93 -156
q111 -54 111 -181q0 -105 -77 -167.5t-192.5 -62.5t-193 63t-77.5 167q0 127 111 181q-94 52 -94 157z" />
    <glyph glyph-name="uni096F" unicode="&#x96f;" horiz-adv-x="637" 
d="M251.5 438.5q23.5 -28.5 69 -28.5t70 25.5t24.5 72t-25 72t-69 25.5t-68.5 -28.5t-24.5 -69t23.5 -69zM332 140q51 0 74 40.5t23 133.5q-19 -18 -56 -31t-78 -13q-105 0 -168 57t-63 171.5t67 180.5t183 66q156 0 214 -102q28 -51 40 -115.5t12 -148t-6.5 -138.5
t-24 -102.5t-46.5 -76.5q-60 -62 -181.5 -62t-179.5 64t-60 160h159q12 -84 91 -84z" />
    <glyph glyph-name="uni0970" unicode="&#x970;" horiz-adv-x="486" 
d="M304 300.5q-18 18.5 -48.5 18.5t-50 -18.5t-19.5 -47.5t19.5 -47.5t49.5 -18.5t48.5 18t18.5 47.5t-18 48zM139 365.5q45 43.5 117.5 43.5t115.5 -44t43 -113t-44.5 -112t-115 -43t-116 45.5t-45.5 112.5t45 110.5z" />
    <glyph glyph-name="uni0972" unicode="&#x972;" horiz-adv-x="865" 
d="M816 1022h137q0 -101 -58 -157.5t-179 -56.5t-179 56.5t-58 157.5h137q0 -42 25 -68t75 -26t75 26t25 68zM626 396v344h259v-140h-95v-600h-164v258h-95q-4 -96 -64.5 -147t-159 -51t-159.5 56t-61 155h157q0 -30 18 -49.5t49 -19.5t48 18.5t17 48.5q0 72 -100 72h-27
v144h31q38 0 60.5 16t22.5 44q0 62 -54.5 62t-58.5 -60h-157q0 90 62 146t157.5 56t152.5 -51t57 -136q0 -51 -24 -89t-64 -55v-3q18 -8 34 -19h158z" />
    <glyph glyph-name="uni200B" unicode="&#x200b;" horiz-adv-x="0" 
 />
    <glyph glyph-name="uni200C" unicode="&#x200c;" horiz-adv-x="0" 
d="M24 -230h-47v1041h47v-1041z" />
    <glyph glyph-name="uni200D" unicode="&#x200d;" horiz-adv-x="0" 
d="M24 -230h-47v865l-69 -73l-33 33l93 93l-95 95l33 33l95 -95l96 95l32 -32l-96 -96l96 -95l-33 -33l-72 75v-865z" />
    <glyph glyph-name="endash" unicode="&#x2013;" horiz-adv-x="695" 
d="M70 280v142h555v-142h-555z" />
    <glyph glyph-name="emdash" unicode="&#x2014;" horiz-adv-x="930" 
d="M70 280v142h790v-142h-790z" />
    <glyph glyph-name="quoteleft" unicode="&#x2018;" horiz-adv-x="231" 
d="M191 570h-131q-20 60 -20 124t35.5 105t104.5 41v-65q-52 0 -52 -66v-16h63v-123z" />
    <glyph glyph-name="quoteright" unicode="&#x2019;" horiz-adv-x="231" 
d="M40 840h131q20 -60 20 -124t-35.5 -105t-104.5 -41v65q52 0 52 66v16h-63v123z" />
    <glyph glyph-name="quotesinglbase" unicode="&#x201a;" horiz-adv-x="241" 
d="M30 106h141q44 -101 23 -190q-11 -44 -47.5 -72t-95.5 -28v65q27 0 39.5 12t12.5 44v16h-73v153z" />
    <glyph glyph-name="quotedblleft" unicode="&#x201c;" horiz-adv-x="421" 
d="M381 570h-131q-20 60 -20 124t35.5 105t104.5 41v-65q-52 0 -52 -66v-16h63v-123zM191 570h-131q-20 60 -20 124t35.5 105t104.5 41v-65q-52 0 -52 -66v-16h63v-123z" />
    <glyph glyph-name="quotedblright" unicode="&#x201d;" horiz-adv-x="421" 
d="M40 840h131q20 -60 20 -124t-35.5 -105t-104.5 -41v65q52 0 52 66v16h-63v123zM230 840h131q20 -60 20 -124t-35.5 -105t-104.5 -41v65q52 0 52 66v16h-63v123z" />
    <glyph glyph-name="quotedblbase" unicode="&#x201e;" horiz-adv-x="241" 
d="M30 106h141q44 -101 23 -190q-11 -44 -47.5 -72t-95.5 -28v65q27 0 39.5 12t12.5 44v16h-73v153z" />
    <glyph glyph-name="dagger" unicode="&#x2020;" horiz-adv-x="654" 
d="M395 545l209 13v-130l-209 13l17 -707h-171l17 707l-208 -13v130l208 -13l-17 244h171z" />
    <glyph glyph-name="daggerdbl" unicode="&#x2021;" horiz-adv-x="654" 
d="M604 558v-130l-209 13v-359l209 13v-130l-209 13l17 -244h-171l17 244l-208 -13v130l208 -13v359l-208 -13v130l208 -13l-17 244h171l-17 -244z" />
    <glyph glyph-name="bullet" unicode="&#x2022;" horiz-adv-x="501" 
d="M357.5 226.5q-43.5 -43.5 -107 -43.5t-107 43.5t-43.5 107t43.5 107t107 43.5t107 -43.5t43.5 -107t-43.5 -107z" />
    <glyph glyph-name="ellipsis" unicode="&#x2026;" horiz-adv-x="727" 
d="M195 27q-27 -27 -66.5 -27t-66.5 27t-27 66.5t27 66.5t66.5 27t66.5 -27t27 -66.5t-27 -66.5zM665 27q-27 -27 -66.5 -27t-66.5 27t-27 66.5t27 66.5t66.5 27t66.5 -27t27 -66.5t-27 -66.5zM430 27q-27 -27 -66.5 -27t-66.5 27t-27 66.5t27 66.5t66.5 27t66.5 -27
t27 -66.5t-27 -66.5z" />
    <glyph glyph-name="perthousand" unicode="&#x2030;" horiz-adv-x="1179" 
d="M1031 158q0 67 -48.5 67t-48.5 -67t48.5 -67t48.5 67zM816 158q0 80 46.5 124t120.5 44t120 -44t46 -124t-46 -124t-120 -44t-120.5 44t-46.5 124zM666 158q0 67 -48.5 67t-48.5 -67t48.5 -67t48.5 67zM451 158q0 80 46.5 124t120.5 44t120 -44t46 -124t-46 -124
t-120 -44t-120.5 44t-46.5 124zM132 0l385 704h165l-385 -704h-165zM245 546q0 67 -48.5 67t-48.5 -67t48.5 -67t48.5 67zM30 546q0 80 46.5 124t120.5 44t120 -44t46 -124t-46 -124t-120 -44t-120.5 44t-46.5 124z" />
    <glyph glyph-name="guilsinglleft" unicode="&#x2039;" horiz-adv-x="337" 
d="M200 295l87 -175h-158l-84 175l84 175h158z" />
    <glyph glyph-name="guilsinglright" unicode="&#x203a;" horiz-adv-x="337" 
d="M208 120h-158l87 175l-87 175h158l84 -175z" />
    <glyph glyph-name="fraction" unicode="&#x2044;" horiz-adv-x="570" 
d="M10 0l385 704h165l-385 -704h-165z" />
    <glyph glyph-name="uni20A8" unicode="&#x20a8;" horiz-adv-x="1207" 
d="M893 431q-67 0 -67 -41q0 -37 82 -51q83 -14 151 -43q35 -14 58.5 -46.5t23.5 -79.5q0 -78 -67 -127.5t-169 -49.5t-170 46.5t-74 137.5h175q7 -51 72 -51q30 0 49.5 14t19.5 36t-32.5 35t-78.5 22t-92.5 22.5t-79 47t-32.5 87.5q0 74 63 124t170.5 50t173.5 -49t70 -134
h-175q-3 29 -20 39.5t-51 10.5zM75 702h277q122 0 190 -63t68 -152q0 -61 -37 -119t-121 -82l172 -286h-200l-158 273h-20v-273h-171v702zM246 572v-169h106q39 0 61.5 23t22.5 60.5t-23 61.5t-61 24h-106z" />
    <glyph glyph-name="Euro" unicode="&#x20ac;" horiz-adv-x="811" 
d="M441 220h-147q52 -69 145 -69t133 77h204q-36 -110 -127 -172t-207 -62t-207.5 61t-130.5 165h-84v105h62q-1 9 -1 28t1 28h-62v106h85q39 103 130 164t207 61t207 -62t127 -172h-204q-40 77 -133 77t-144 -68h146v-106h-185q-1 -9 -1 -28t1 -28h185v-105z" />
    <glyph glyph-name="uni20B9" unicode="&#x20b9;" horiz-adv-x="635" 
d="M595 588h-85v-56h85v-115h-90q-16 -93 -78 -141.5t-182 -48.5v-26q0 -25 3 -40t18.5 -28.5t44.5 -13.5q66 0 66 81h158q0 -103 -58 -156.5t-167.5 -53.5t-167 55.5t-57.5 167.5v126q151 0 200 13t60 65h-294v115h299v56h-299v116h544v-116z" />
    <glyph glyph-name="uni20BA" unicode="&#x20ba;" horiz-adv-x="830" 
d="M566 456h174q0 -244 -88 -354t-292 -110q-103 0 -253 29v224l-125 -23v106l125 23v57l-127 -23v103l127 24v195h174v-162l134 25v-106l-134 -24v-58l134 24v-106l-134 -24v-117q33 -7 81.5 -7t86.5 16t60 42t35 66q22 69 22 180z" />
    <glyph glyph-name="uni20BD" unicode="&#x20bd;" horiz-adv-x="678" 
d="M392 273h-106v-61h154v-130h-154v-82h-171v82h-95v130h95v61h-95v130h95v299h277q122 0 190 -63t68 -152q0 -71 -51 -137q-27 -34 -80.5 -55.5t-126.5 -21.5zM286 572v-169h106q39 0 61.5 23t22.5 60.5t-23 61.5t-61 24h-106z" />
    <glyph glyph-name="uni2113" unicode="&#x2113;" horiz-adv-x="321" 
d="M75 0v740h171v-740h-171z" />
    <glyph glyph-name="trademark" unicode="&#x2122;" horiz-adv-x="880" 
d="M830 704v-351h-113l-3 226l-82 -226h-83l-82 238v-238h-109v351h182l57 -188l64 188h169zM30 605v99h277v-99h-77l2 -252h-129l4 252h-77z" />
    <glyph glyph-name="Omega" unicode="&#x2126;" horiz-adv-x="788" 
d="M40 130h84q-89 76 -89 227.5t103.5 253t255.5 101.5t255.5 -101.5t103.5 -253t-89 -227.5h84v-130h-270v134q101 80 101 204q0 102 -50 159.5t-135 57.5t-135 -57.5t-50 -159.5q0 -124 101 -204v-134h-270v130z" />
    <glyph glyph-name="estimated" unicode="&#x212e;" horiz-adv-x="748" 
d="M225 408h296v166q-55 43 -146 43t-150 -50v-159zM383 -7q-154 0 -251 91.5t-97 254t90 268.5t247.5 106t249 -97.5t91.5 -232.5v-63h-488v-177q70 -51 158 -51q132 0 242 110l59 -68q-132 -141 -301 -141z" />
    <glyph glyph-name="partialdiff" unicode="&#x2202;" horiz-adv-x="618" 
d="M101 58.5q-66 65.5 -66 196t82.5 220t191.5 89.5q51 0 93 -17q-21 101 -120 101q-32 0 -77 -12v87q51 17 103 17q124 0 199.5 -98.5t75.5 -236.5q0 -186 -92 -299t-222 -113q-102 0 -168 65.5zM369.5 190.5q29.5 51.5 29.5 114.5q0 113 -71 113q-55 0 -87 -47.5t-32 -112
t22 -92t55 -27.5q54 0 83.5 51.5z" />
    <glyph glyph-name="Delta" unicode="&#x2206;" horiz-adv-x="735" 
d="M539 130l-171 380l-172 -380h343zM715 0h-695v130l278 574h139l278 -574v-130z" />
    <glyph glyph-name="product" unicode="&#x220f;" horiz-adv-x="747" 
d="M20 574v130h707v-130h-70v-574h-171v574h-225v-574h-171v574h-70z" />
    <glyph glyph-name="summation" unicode="&#x2211;" horiz-adv-x="536" 
d="M496 704v-130h-298l240 -171v-130l-246 -193h304v-130h-456v199l235 185l-235 171v199h456z" />
    <glyph glyph-name="minus" unicode="&#x2212;" horiz-adv-x="580" 
d="M70 280v142h440v-142h-440z" />
    <glyph glyph-name="uni2215" unicode="&#x2215;" horiz-adv-x="453" 
d="M10 -187l268 1137h165l-268 -1137h-165z" />
    <glyph glyph-name="uni2219" unicode="&#x2219;" horiz-adv-x="277" 
d="M205 257q-27 -27 -66.5 -27t-66.5 27t-27 66.5t27 66.5t66.5 27t66.5 -27t27 -66.5t-27 -66.5z" />
    <glyph glyph-name="radical" unicode="&#x221a;" horiz-adv-x="930" 
d="M806 904h104l-528 -945h-83l-149 265l-82 -48l-48 80l232 137l134 -240z" />
    <glyph glyph-name="infinity" unicode="&#x221e;" horiz-adv-x="777" 
d="M698.5 474q48.5 -45 48.5 -125t-51 -127t-127 -47q-102 0 -188 86q-65 -87 -172 -86q-82 1 -130.5 46t-48.5 125t51 127t127 47q105 0 184 -92q65 93 176 92q82 -1 130.5 -46zM222 289q54 0 93 50q-27 33 -48.5 50t-45.5 17t-40 -15.5t-16 -43.5t15.5 -43t41.5 -15z
M555 289q25 0 41 15.5t16 43.5t-15.5 43t-41.5 15q-60 0 -99 -59q49 -58 99 -58z" />
    <glyph glyph-name="integral" unicode="&#x222b;" horiz-adv-x="292" 
d="M325 942h17l-14 -145h-17q-31 0 -36 -39l-87 -840q-11 -101 -68.5 -142.5t-152.5 -41.5h-17l14 145h17q31 0 36 39l87 840q11 101 68.5 142.5t152.5 41.5z" />
    <glyph glyph-name="approxequal" unicode="&#x2248;" horiz-adv-x="631" 
d="M224 589q48 0 107.5 -33t84.5 -33q54 0 63 66h122q-35 -217 -195 -217q-48 0 -107 33t-85 33q-54 0 -64 -66h-120q35 217 194 217zM224 339q48 0 107.5 -33t84.5 -33q54 0 63 66h122q-35 -217 -195 -217q-48 0 -107 33t-85 33q-54 0 -64 -66h-120q35 217 194 217z" />
    <glyph glyph-name="notequal" unicode="&#x2260;" horiz-adv-x="730" 
d="M670 554v-154h-191l-82 -101h273v-154h-399l-65 -80h-96l65 80h-65v154h191l82 101h-273v154h399l65 80h96l-65 -80h65z" />
    <glyph glyph-name="lessequal" unicode="&#x2264;" horiz-adv-x="548" 
d="M483 571l-198 -185l198 -185h-214l-204 185l204 185h214zM79 0v131h398v-131h-398z" />
    <glyph glyph-name="greaterequal" unicode="&#x2265;" horiz-adv-x="548" 
d="M71 0v131h398v-131h-398zM279 201h-214l198 185l-198 185h214l204 -185z" />
    <glyph glyph-name="lozenge" unicode="&#x25ca;" horiz-adv-x="565" 
d="M380 353l-97 97l-98 -97l98 -98zM20 353l263 262l262 -262l-262 -263z" />
    <glyph glyph-name="uni25CC" unicode="&#x25cc;" horiz-adv-x="660" 
d="M257 560q0 20 12.5 32t31.5 12t31.5 -12t12.5 -32t-12.5 -32t-31.5 -12t-31.5 12t-12.5 32zM396 514q-13 13 -13 31.5t12.5 31.5t32 13t31.5 -12.5t12 -31.5t-12.5 -32t-31 -13t-31.5 13zM478 477q0 19 12.5 32t31.5 13t31.5 -12.5t12.5 -32t-12.5 -32t-31.5 -12.5
t-31.5 12.5t-12.5 31.5zM528 359q0 19 12 31.5t31.5 12.5t32 -12.5t12.5 -31.5t-12.5 -31.5t-32 -12.5t-31.5 12.5t-12 31.5zM518 225q0 19 13 32t31.5 13t31 -13t12.5 -32t-12.5 -31.5t-31 -12.5t-31.5 12.5t-13 31.5zM445 127q0 19 12.5 31.5t31.5 12.5t32 -12.5t13 -31.5
t-13 -31.5t-32 -12.5t-31.5 12.5t-12.5 31.5zM324 74q0 20 12 32t32 12t32.5 -12.5t12.5 -31.5t-12.5 -31.5t-32.5 -12.5t-32 12t-12 32zM210 57q-13 13 -13 32t13 32t32 13t31.5 -13t12.5 -32t-12.5 -32t-31.5 -13t-32 13zM96 165q0 19 12.5 31.5t31.5 12.5t31.5 -12.5
t12.5 -31.5t-12.5 -31.5t-32 -12.5t-31.5 12.5t-12 31.5zM44 281q0 19 12.5 32t31.5 13t31.5 -12.5t12.5 -32t-12.5 -31.5t-31.5 -12t-31.5 12t-12.5 31zM57 407q0 19 13 31.5t32 12.5t32 -12.5t13 -31.5t-13 -31.5t-32 -12.5t-32 12.5t-13 31.5zM151.5 484.5
q-12.5 12.5 -12.5 32t12.5 32t31.5 12.5t31.5 -12.5t12.5 -32t-12.5 -32t-31.5 -12.5t-31.5 12.5z" />
    <glyph glyph-name="uniF6C3" unicode="&#xf6c3;" horiz-adv-x="171" 
d="M10 -40h131q20 -60 20 -124t-35.5 -105t-104.5 -41v65q52 0 52 66v16h-63v123z" />
    <glyph glyph-name="uF01B6" unicode="&#xf01b6;" horiz-adv-x="863" 
d="M631 740h252v-140h-95v-600h-157v338h-309q-32 -17 -48.5 -28t-30.5 -30.5t-14 -47t21 -46t59.5 -18.5t59 25t20.5 59h136v-308h-151v128q-35 -40 -119.5 -40t-138 47t-53.5 118t35 114t99 79q-49 19 -78 60.5t-29 102.5q0 84 64.5 140.5t157 56.5t152.5 -47t60 -131
q0 -32 -12.5 -63t-31.5 -48h151v279zM386 540q0 32 -19.5 51t-54 19t-55 -19.5t-20.5 -54t28 -54t73 -21.5q48 25 48 79z" />
    <glyph glyph-name="uF01B7" unicode="&#xf01b7;" horiz-adv-x="857" 
d="M-20 740h889v-140h-110v-600h-164v368h-121q44 -42 44 -118.5t-52 -129t-137.5 -52.5t-130.5 41v-106h-159v313h159q0 -55 21.5 -83.5t64.5 -28.5t64 22t21 61.5t-27.5 60t-69.5 20.5h-40v129h363v103h-615v140z" />
    <glyph glyph-name="uF01B8" unicode="&#xf01b8;" horiz-adv-x="672" 
d="M931 600h-341v-115q47 57 140 57t146.5 -67t53.5 -167h-161q0 42 -23 68t-66 26t-66.5 -28t-23.5 -75v-299h-157v138q-48 -64 -146 -64t-155.5 68t-57.5 166t57.5 166t154.5 68t147 -64v122h-453v140h951v-140zM264.5 239.5q25.5 -25.5 70 -25.5t71.5 25.5t27 68.5
t-26.5 68.5t-71.5 25.5t-70.5 -25.5t-25.5 -68.5t25.5 -68.5z" />
    <glyph glyph-name="uF01B9" unicode="&#xf01b9;" horiz-adv-x="636" 
d="M408 600v-8q0 -157 -33 -219t-138 -76v-39q0 -122 114 -122q86 0 110 58q-42 53 -42 129q0 96 64 151t165 55t164 -55t63 -151.5t-64 -151.5t-163 -55q-29 0 -50 4q-31 -59 -95.5 -91.5t-149.5 -32.5q-131 0 -206.5 73t-75.5 207v131h29q89 3 116 38t27 146v9h-263v140
h897v-140h-469zM648 403q-38 0 -60 -21.5t-22 -59t22 -58.5t60 -21t60 21t22 58.5t-22 59t-60 21.5z" />
    <glyph glyph-name="uF01BA" unicode="&#xf01ba;" horiz-adv-x="505" 
d="M545 740v-140h-101v-196q0 -118 -46 -178.5t-154.5 -60.5t-159 56t-48.5 170h164q0 -26 2.5 -42.5t13.5 -30t28.5 -13.5t27 7t12.5 23q6 25 6 45v220h-310v140h565z" />
    <glyph glyph-name="uF01BB" unicode="&#xf01bb;" horiz-adv-x="375" 
d="M620 740v-140h-377q0 -57 15.5 -84.5t62.5 -27.5h48v-132h-51q-87 0 -87 -61q0 -63 109 -63q122 0 122 126h152q0 -260 -276 -260q-108 0 -184 38q-41 20 -64.5 56.5t-23.5 87t26.5 86t66.5 52.5v6q-43 20 -62 59.5t-19 116.5h-98v140h640z" />
    <glyph glyph-name="uF01BC" unicode="&#xf01bc;" horiz-adv-x="779" 
d="M-20 740h818v-140h-323v-189h-155q-88 0 -88 -38q0 -24 21 -30.5t68 -6.5q217 0 217 -174q0 -84 -62 -133t-170 -49t-178 52.5t-74 146.5h162q3 -36 27 -54t62 -18q71 0 71 52q0 29 -22 40t-69 11q-219 0 -219 174q0 78 58.5 117.5t146.5 39.5h39v59h-330v140zM611 371.5
q25 25.5 61.5 25.5t62 -25.5t25.5 -62t-25.5 -61.5t-62 -25t-61.5 25t-25 61.5t25 62zM243 -60h154l133 -217h-161z" />
    <glyph glyph-name="uF01BD" unicode="&#xf01bd;" horiz-adv-x="421" 
d="M511 369h155q0 -287 -270 -287q-152 0 -223 86q-38 45 -38 109t43 105h-128v129h371v-129h-40q-39 0 -65.5 -21t-26.5 -60.5t30 -61t77 -21.5q115 0 115 151zM665 740v-140h-685v140h685z" />
    <glyph glyph-name="uF01BE" unicode="&#xf01be;" horiz-adv-x="830" 
d="M850 600h-603v-10q0 -69 16 -97.5t67 -28.5h14v-132h-21q-34 0 -57.5 -19.5t-23.5 -59t48 -63t119 -23.5q230 0 230 167q0 86 -56 86q-34 0 -48.5 -37t-10.5 -121h-137q-12 169 43 228q27 29 62 41t86 12q98 0 149 -56t51 -155q0 -141 -91 -221.5t-274 -80.5
q-195 0 -288 90q-50 49 -50 118q0 110 95 156v6q-50 23 -69 68t-19 123v9h-102v140h870v-140z" />
    <glyph glyph-name="uF01BF" unicode="&#xf01bf;" horiz-adv-x="548" 
d="M-20 740h741v-140h-741v140zM720 497v-131h-207v-36q0 -234 -226 -234q-123 0 -181.5 65.5t-58.5 168.5v167h164v-140q0 -61 16 -91t58 -30t54.5 29t12.5 92v140h368z" />
    <glyph glyph-name="uF01C0" unicode="&#xf01c0;" horiz-adv-x="529" 
d="M472 421h-155q-46 0 -67 -6t-21 -24t11 -25.5t24 -8.5t42 -1h389v-130h-183q11 -14 11 -40q0 -78 -48 -126.5t-126.5 -48.5t-114.5 33v-104h-155v264h155q0 -67 74 -67q30 0 47.5 13.5t17.5 33.5t-5.5 29t-20.5 13q-19 5 -58.5 5t-65 2.5t-57.5 12t-53 26.5t-35.5 49.5
t-14.5 77.5q0 78 58 115t147 37h39v49h-327v140h715v-140h-223v-179z" />
    <glyph glyph-name="uF01C1" unicode="&#xf01c1;" horiz-adv-x="565" 
d="M-20 740h749v-140h-749v140zM131 492q64 50 160.5 50t159 -45t82.5 -125h195v-140h-194q-20 -82 -82.5 -128t-159.5 -46t-161 50t-75 135h160q7 -21 28.5 -33.5t58 -12.5t59.5 29t23 74t-23 74t-60 29q-71 0 -86 -46h-160q11 85 75 135z" />
    <glyph glyph-name="uF01C2" unicode="&#xf01c2;" horiz-adv-x="623" 
d="M562 -254h-161l-126 217h154zM447 404h-82q-75 0 -120 -30.5t-45 -90t35 -92t93 -32.5t89.5 33t31.5 89h156q0 -125 -74.5 -194t-203 -69t-208.5 70t-80 186.5t66.5 186t177.5 81.5v58h-316v140h689v-140h-209v-196z" />
    <glyph glyph-name="uF01C3" unicode="&#xf01c3;" horiz-adv-x="671" 
d="M337 406q-56 0 -89 -33t-33 -87t33 -87t89 -33t89 33t33 87t-33 87t-89 33zM621 286q0 -118 -80 -187.5t-204 -69.5t-204 69.5t-80 187.5q0 96 55 161t147 87v66h-275v140h711v-140h-272v-66q92 -22 147 -87t55 -161zM555 -244h-161l-126 217h154z" />
    <glyph glyph-name="uF01C4" unicode="&#xf01c4;" horiz-adv-x="568" 
d="M475 411h-155q-88 0 -88 -38q0 -24 21 -30.5t68 -6.5q217 0 217 -174q0 -84 -62 -133t-170 -49t-178 52.5t-74 146.5h162q3 -36 27 -54t62 -18q71 0 71 52q0 29 -22 40t-69 11q-219 0 -219 174q0 78 58.5 117.5t146.5 39.5h39v59h-330v140h608v-140h-113v-189zM244 -63
h154l133 -217h-161z" />
    <glyph glyph-name="uF01C5" unicode="&#xf01c5;" horiz-adv-x="644" 
d="M494 410h-106q-81 -1 -130 -39t-49 -105q0 -138 167 -138q49 0 78 17.5t29 49.5q0 48 -42.5 48t-42.5 -48h-136q-2 83 42.5 127.5t131 44.5t141.5 -45.5t55 -121.5q0 -102 -74.5 -156t-187.5 -54q-142 0 -232 72t-90 201t76.5 199.5t205.5 81.5v56h-350v140h684v-140
h-170v-190zM296 -64h154l133 -217h-161z" />
    <glyph glyph-name="uF01C6" unicode="&#xf01c6;" horiz-adv-x="581" 
d="M601 740v-140h-64v-233q0 -108 -56 -169.5t-171 -61.5t-171 61.5t-56 169.5v233h-103v140h621zM375 360v240h-130v-240q0 -84 65 -84t65 84z" />
    <glyph glyph-name="uF01C7" unicode="&#xf01c7;" horiz-adv-x="354" 
d="M542 600h-562v140h562v-140zM542 491v-140h-195q-57 0 -90 -28t-33 -84q0 -110 129 -110v-129h-32q-121 0 -191.5 58t-70.5 185.5t79 187.5t206 60h198z" />
    <glyph glyph-name="uF01C8" unicode="&#xf01c8;" horiz-adv-x="471" 
d="M551 384h162q0 -146 -85.5 -225.5t-234.5 -79.5q-170 0 -261.5 98.5t-69.5 290.5h114q148 0 148 84q0 26 -14 40.5t-38.5 14.5t-37.5 -18.5t-11 -50.5h-149q-4 99 54.5 154t147 55t147 -50.5t58.5 -145.5t-66 -149t-183 -55q-4 -65 41.5 -96.5t118 -31.5t116 40t43.5 125
z" />
    <glyph glyph-name="uF01C9" unicode="&#xf01c9;" horiz-adv-x="613" 
d="M551 -28h-163v116q-33 -33 -104 -33q-96 0 -161 59.5t-65 177t76.5 179t199.5 61.5h23v68h-377v140h653v-140h-112v-213h-177q-55 0 -88.5 -27.5t-33.5 -74t26 -70t68 -23.5t64 19.5t22 52.5h149v-292zM684 -319h-161l-126 217h154z" />
    <glyph glyph-name="uF01CA" unicode="&#xf01ca;" horiz-adv-x="433" 
d="M290.5 596.5q-12.5 13.5 -32.5 13.5t-32.5 -12.5t-12.5 -32.5q0 -42 36 -60.5t88 -18.5h62v-132h-40q-119 0 -119 -70q0 -36 33.5 -53.5t87.5 -17.5q149 0 149 161h160q1 -72 -19 -126.5t-51.5 -85.5t-75.5 -50q-70 -32 -176.5 -32t-189.5 46.5t-83 143.5q0 56 30.5 92.5
t77.5 53.5v6q-52 17 -83.5 59t-31.5 110.5t51 113.5t136.5 45t133.5 -53.5t42 -138.5h-129q1 25 -11.5 38.5z" />
    <glyph glyph-name="uF01CB" unicode="&#xf01cb;" horiz-adv-x="487" 
d="M255 349q-36 0 -57.5 -18.5t-21.5 -53t22 -56t57 -21.5t54.5 21t19.5 56q0 72 -74 72zM678 489v-138h-247q35 -39 35 -104q0 -88 -57 -137.5t-155.5 -49.5t-162 59.5t-63.5 160t68 155t178 54.5h404zM678 600h-698v140h698v-140z" />
    <glyph glyph-name="uF01CC" unicode="&#xf01cc;" horiz-adv-x="369" 
d="M453 422h160q0 -124 -67 -190t-194.5 -66t-199.5 68.5t-72 191.5v174h-100v140h633v-140h-368v-178q0 -117 107 -117q56 0 78.5 30t22.5 87z" />
    <glyph glyph-name="uF01CD" unicode="&#xf01cd;" horiz-adv-x="683" 
d="M992 600h-397v-124q47 55 139 55t146 -64.5t52 -164.5h-149q0 39 -25.5 63.5t-68 24.5t-68.5 -29t-26 -74v-287h-165v244q-45 -58 -144 -58t-154 74t-55 190v150h-97v140h1012v-140zM242 600v-154q0 -59 20.5 -90t75.5 -31q92 0 92 128v147h-188z" />
    <glyph glyph-name="uF01CE" unicode="&#xf01ce;" horiz-adv-x="359" 
d="M-20 740h611v-140h-611v140zM114 485.5q79 66.5 198.5 66.5t198 -67.5t78.5 -182t-78.5 -181.5t-199 -67t-198.5 66.5t-78 182.5t79 182.5zM447 303q0 56 -38.5 92t-88.5 36t-84 -20l208 -139q3 14 3 31zM177 303q0 -59 38 -93.5t90 -34.5t88 22l-211 141q-5 -18 -5 -35z
" />
    <glyph glyph-name="uF01CF" unicode="&#xf01cf;" horiz-adv-x="577" 
d="M785 466v-134h-276v-40q0 -111 -54.5 -172.5t-156 -61.5t-166 57.5t-64.5 154.5t65.5 146.5t177.5 49.5h44v46q0 74 -19 88q-10 8 -26 8t-26 -7.5t-14 -24.5q-5 -27 -5 -64h-164q-3 238 206 238q108 0 155 -62.5t47 -178.5v-43h276zM355 286v46h-42q-41 0 -67 -17.5
t-26 -50.5t19.5 -50.5t50.5 -17.5q65 0 65 90z" />
    <glyph glyph-name="uF01D0" unicode="&#xf01d0;" horiz-adv-x="554" 
d="M752 600h-256v-134h256v-134h-256v-40q0 -111 -54.5 -172.5t-156 -61.5t-166 57.5t-64.5 154.5t65.5 146.5t177.5 49.5h44v134h-362v140h772v-140zM342 286v46h-42q-41 0 -67 -17.5t-26 -50.5t19.5 -50.5t50.5 -17.5q65 0 65 90z" />
    <glyph glyph-name="uF01D1" unicode="&#xf01d1;" horiz-adv-x="431" 
d="M515 371h158q3 -186 -129 -255q-72 -38 -172 -38q-164 0 -243 96.5t-68 263.5q54 0 86 9t46.5 31t18.5 44t4 62v16h-236v140h693v-140h-296v-23q0 -113 -29.5 -164t-116.5 -62q-1 -62 35 -97.5t106 -35.5q143 0 143 153z" />
    <glyph glyph-name="uF01D2" unicode="&#xf01d2;" horiz-adv-x="525" 
d="M471 600v-30q0 -76 -10 -125t-37.5 -84.5t-74.5 -51t-122 -17.5v-80q0 -36 11 -56t42 -20q50 0 50 76h160q1 -216 -210 -216q-106 0 -162.5 53.5t-56.5 160.5v211h61q62 0 80.5 2.5t38 7t25 9t16 13.5t13 19t6.5 25q5 19 5 72v31h-326v140h565v-140h-74zM194 -64h144
l132 -197h-161z" />
    <glyph glyph-name="uF01D3" unicode="&#xf01d3;" horiz-adv-x="669" 
d="M873 270h-165q0 47 -21.5 74t-62.5 27q-102 0 -82 -165h-150q18 165 -80 165q-42 0 -63 -27t-21 -74q0 -124 142 -115v-142q-144 -10 -225.5 59.5t-81.5 192.5t63.5 186.5t163.5 63.5q129 0 179 -100q47 100 177 100q100 0 163.5 -63t63.5 -182zM874 600h-894v140h894
v-140z" />
    <glyph glyph-name="uF01D4" unicode="&#xf01d4;" horiz-adv-x="335" 
d="M197 303q0 -48 30 -78t80 -30t80.5 30t30.5 78t-30.5 78t-80.5 30t-80 -30t-30 -78zM37 303q0 115 77 179.5t194 64.5t193.5 -64.5t76.5 -179.5t-76.5 -179.5t-194 -64.5t-194 64.5t-76.5 179.5zM580 600h-600v140h600v-140z" />
    <glyph glyph-name="uF01D5" unicode="&#xf01d5;" horiz-adv-x="531" 
d="M541 532q0 -244 -307 -244v-74q0 -78 69.5 -78t66.5 93h160q2 -233 -224 -233q-110 0 -174 60t-64 166v198h107q148 0 185 52q16 24 16 59q0 76 -65 76q-37 0 -53 -26t-14 -67h-164q-4 99 53.5 166t169.5 67t175 -56.5t63 -158.5z" />
    <glyph glyph-name="uF01D6" unicode="&#xf01d6;" horiz-adv-x="393" 
d="M604 600h-361l360 -227q-1 -108 -72 -167.5t-188 -59.5t-191 67t-74 189v198h-98v140h624v-140zM243 404q0 -119 106 -119q37 0 64.5 16.5t36.5 46.5l-207 133v-77z" />
    <glyph glyph-name="uF01D7" unicode="&#xf01d7;" horiz-adv-x="500" 
d="M436 600v-62q0 -63 -14 -113h256v-136h-449v-87q0 -66 58 -66q34 0 45.5 22t12.5 60h160q-4 -112 -51 -167t-159 -55t-172 57t-60 157v191h81q79 0 103 33t24 114v52h-291v140h698v-140h-242z" />
    <glyph glyph-name="uF01D8" unicode="&#xf01d8;" horiz-adv-x="618" 
d="M487 420h-164q-34 0 -51.5 -8t-17.5 -31t20 -34q22 3 47 3q102 0 168.5 -51t66.5 -140h-160q0 25 -21 40.5t-56.5 15.5t-59.5 -21.5t-24 -62.5t24 -64t59.5 -23t56.5 15t21 41h160q0 -89 -66.5 -140t-176 -51t-175.5 59.5t-66 164t70 162.5q-50 42 -50 109t51 107t146 40
h33v49h-342v140h658v-140h-151v-180zM237 -163h154l133 -217h-161z" />
    <glyph glyph-name="uF01D9" unicode="&#xf01d9;" horiz-adv-x="927" 
d="M302 170q42 0 68 26t26 68q-1 42 -26.5 68t-68 26t-68 -26t-25.5 -68.5t26 -68t68 -25.5zM650 358q-42 0 -68 -26.5t-26 -68.5t26 -67.5t68 -25.5t68 26t26 68t-26 68t-68 26zM670 498q101 0 167 -64t66 -169.5t-66 -170t-167 -64.5q-62 0 -115.5 27.5t-79.5 81.5
q-22 -55 -78 -82t-115 -27q-102 0 -168 64t-66 170t66 170t168 64q60 0 113.5 -26t80.5 -84q53 110 194 110zM947 600h-967v140h967v-140z" />
    <glyph glyph-name="uF01DA" unicode="&#xf01da;" horiz-adv-x="559" 
d="M376.5 591q-19.5 19 -54 19t-55 -19.5t-20.5 -54t28 -54t73 -21.5q48 25 48 79q0 32 -19.5 51zM164.5 693.5q64.5 56.5 157 56.5t152.5 -47t60 -131q0 -32 -12.5 -63t-31.5 -48h236v-123h-394q-32 -17 -48.5 -28t-30.5 -30.5t-14 -47t22 -46t60.5 -18.5t58 24.5
t19.5 59.5h139v-308h-154v133q-34 -45 -117 -45t-138.5 50t-55.5 132q0 104 134 176q-49 19 -78 60.5t-29 102.5q0 84 64.5 140.5z" />
    <glyph glyph-name="uF01DB" unicode="&#xf01db;" horiz-adv-x="539" 
d="M-20 740h703v-140h-703v140zM269 503h414v-136h-228q58 -39 58 -119.5t-46.5 -131.5t-129.5 -51t-129 42v-118h-156v298h141q0 -33 25.5 -57.5t65 -24.5t60.5 22.5t21 57.5q0 80 -96 82v136z" />
    <glyph glyph-name="uF01DC" unicode="&#xf01dc;" horiz-adv-x="596" 
d="M907 600h-341v-115q47 57 140 57t146.5 -67t53.5 -167h-161q0 42 -23 68t-66 26t-66.5 -28t-23.5 -75v-299h-157v138q-48 -64 -146 -64t-155.5 68t-57.5 166t57.5 166t154.5 68t147 -64v122h-453v140h951v-140zM240.5 239.5q25.5 -25.5 70 -25.5t71.5 25.5t27 68.5
t-26.5 68.5t-71.5 25.5t-70.5 -25.5t-25.5 -68.5t25.5 -68.5zM177.5 -15.5q27.5 27.5 67 27.5t67 -27.5t27.5 -67t-27.5 -67t-67 -27.5t-67 27.5t-27.5 67t27.5 67z" />
    <glyph glyph-name="uF01DD" unicode="&#xf01dd;" horiz-adv-x="573" 
d="M384 600v-8q0 -157 -33 -219t-138 -76v-39q0 -122 114 -122q86 0 110 58q-42 53 -42 129q0 96 64 151t165 55t164 -55t63 -151.5t-64 -151.5t-163 -55q-29 0 -50 4q-31 -59 -95.5 -91.5t-149.5 -32.5q-131 0 -206.5 73t-75.5 207v131h29q89 3 116 38t27 146v9h-263v140
h897v-140h-469zM624 403q-38 0 -60 -21.5t-22 -59t22 -58.5t60 -21t60 21t22 58.5t-22 59t-60 21.5zM264.5 -76.5q27.5 27.5 67 27.5t67 -27.5t27.5 -67t-27.5 -67t-67 -27.5t-67 27.5t-27.5 67t27.5 67z" />
    <glyph glyph-name="uF01DE" unicode="&#xf01de;" horiz-adv-x="435" 
d="M545 740v-140h-101v-196q0 -118 -46 -178.5t-154.5 -60.5t-159 56t-48.5 170h164q0 -26 2.5 -42.5t13.5 -30t28.5 -13.5t27 7t12.5 23q6 25 6 45v220h-310v140h565zM192.5 63.5q27.5 27.5 67 27.5t67 -27.5t27.5 -67t-27.5 -67t-67 -27.5t-67 27.5t-27.5 67t27.5 67z" />
    <glyph glyph-name="uF01DF" unicode="&#xf01df;" horiz-adv-x="491" 
d="M-20 740h741v-140h-741v140zM720 497v-131h-207v-36q0 -234 -226 -234q-123 0 -181.5 65.5t-58.5 168.5v167h164v-140q0 -61 16 -91t58 -30t54.5 29t12.5 92v140h368zM218.5 9.5q27.5 27.5 67 27.5t67 -27.5t27.5 -67t-27.5 -67t-67 -27.5t-67 27.5t-27.5 67t27.5 67z
" />
    <glyph glyph-name="uF01E0" unicode="&#xf01e0;" horiz-adv-x="574" 
d="M983 600h-397v-124q47 55 139 55t146 -64.5t52 -164.5h-149q0 39 -25.5 63.5t-68 24.5t-68.5 -29t-26 -74v-287h-165v244q-45 -58 -144 -58t-154 74t-55 190v150h-97v140h1012v-140zM233 600v-154q0 -59 20.5 -90t75.5 -31q92 0 92 128v147h-188zM162.5 87.5
q27.5 27.5 67 27.5t67 -27.5t27.5 -67t-27.5 -67t-67 -27.5t-67 27.5t-27.5 67t27.5 67z" />
    <glyph glyph-name="uF01E1" unicode="&#xf01e1;" horiz-adv-x="1734" 
d="M1396 237v196h207v-196h-207zM1396 475v196h207v-196h-207zM1146 0v671h208v-671h-208zM896 475v196h208v-196h-208zM647 0v671h207v-671h-207zM397 475v196h207v-196h-207zM147 0v671h207v-671h-207z" />
    <glyph glyph-name="uF01E2" unicode="&#xf01e2;" horiz-adv-x="0" 
d="M-222 813q0 242 198 242q93 0 141 -54.5t48 -153.5h-141q0 73 -48 73q-32 0 -44.5 -25.5t-12.5 -79.5v-105h-141v103z" />
    <glyph glyph-name="uF01E3" unicode="&#xf01e3;" horiz-adv-x="231" 
d="M398 600h-418v140h418v-140zM234 312q-67 0 -120.5 20t-91.5 71t-40 128h147q10 -93 125 -93q44 0 84 11l59 -92q-70 -45 -163 -45z" />
    <glyph glyph-name="uF01E4" unicode="&#xf01e4;" horiz-adv-x="0" 
d="M-88 -88h-155l-77 115l-77 -115h-155l112 142h240z" />
    <glyph glyph-name="uF01E5" unicode="&#xf01e5;" horiz-adv-x="987" 
d="M1007 600h-417v-115q47 57 140 57t148.5 -67.5t55.5 -166.5q0 -122 -84.5 -181t-204.5 -34l-1 129q61 -11 93 13t32 69.5t-23 71.5t-66 26t-66.5 -28t-23.5 -75v-299h-157v141l-140 -187h-168q74 87 117 139q-78 18 -123 76.5t-45 147.5t57.5 157t154.5 68t147 -64v122
h-453v140h1027v-140zM335 402q-45 0 -70.5 -25.5t-25.5 -68.5t25.5 -68.5t70 -25.5t71.5 25.5t27 68.5t-26.5 68.5t-71.5 25.5z" />
    <glyph glyph-name="uF01E6" unicode="&#xf01e6;" horiz-adv-x="958" 
d="M-20 740h998v-140h-95v-600h-157v167q-41 -51 -121 -51q-25 0 -48 6l-181 -221h-168v10q30 34 118 127q-255 11 -255 271v98h19q96 2 124.5 36t28.5 148v9h-263v140zM237 287q0 -61 30 -91t96.5 -30t95.5 23q-40 55 -40 139t52 142.5t133 58.5t122 -51v122h-318v-8
q0 -157 -33 -219t-138 -76v-10zM588 264q22 -21 58.5 -21t57.5 21.5t21 59t-20 58.5t-57.5 21t-59.5 -21.5t-22 -59t22 -58.5z" />
    <glyph glyph-name="uF01E7" unicode="&#xf01e7;" horiz-adv-x="815" 
d="M-20 740h855v-140h-95v-600h-164v155l-139 -162h-178q306 321 317 337v270h-132v-196q0 -118 -46 -178.5t-154.5 -60.5t-159 56t-48.5 170h164q0 -26 2.5 -42.5t13.5 -30t28.5 -13.5t27 7t12.5 23q6 25 6 45v220h-310v140z" />
    <glyph glyph-name="uF01E8" unicode="&#xf01e8;" horiz-adv-x="698" 
d="M718 740v-140h-95v-600h-165v164l-153 -211h-178q89 109 126 156q-81 7 -134 49t-53 120q0 51 26.5 87t66.5 53v6q-43 20 -62 59.5t-19 116.5h-98v140h738zM458 358v242h-215q0 -57 15.5 -84.5t62.5 -27.5h48v-132h-51q-87 0 -87 -61q0 -32 26 -47.5t63 -15.5q60 0 99 34
t39 92z" />
    <glyph glyph-name="uF01E9" unicode="&#xf01e9;" horiz-adv-x="716" 
d="M-20 740h756v-140h-261v-189h-155q-88 0 -88 -38q0 -24 21 -30.5t68 -6.5q217 0 217 -174q0 -110 -102 -157l110 -140h-155l-77 115l-77 -115h-155l106 135q-60 22 -95.5 68t-38.5 111h162q3 -36 27 -54t62 -18q71 0 71 52q0 29 -22 40t-69 11q-219 0 -219 174
q0 78 58.5 117.5t146.5 39.5h39v59h-330v140zM541.5 417q25.5 25 61 25t60.5 -25t25 -60.5t-25 -61t-60.5 -25.5t-61 25.5t-25.5 61t25.5 60.5z" />
    <glyph glyph-name="uF01EA" unicode="&#xf01ea;" horiz-adv-x="753" 
d="M-20 740h793v-140h-95v-600h-165v153l-159 -205h-176q78 88 129 147q-79 11 -125.5 56t-46.5 115.5t42 115.5h-127v129h371v-129h-40q-39 0 -65.5 -21t-26.5 -60.5t28.5 -61t80 -21.5t83.5 41t32 110v231h-533v140z" />
    <glyph glyph-name="uF01EB" unicode="&#xf01eb;" horiz-adv-x="830" 
d="M850 600h-174v-75q102 -46 102 -193q0 -108 -53 -181.5t-161 -102.5l105 -133h-155l-77 115l-77 -115h-155l98 124q-102 19 -165 69t-63 130q0 110 95 156v6q-50 23 -69 68t-19 123v9h-102v140h870v-140zM247 600v-10q0 -69 16 -97.5t67 -28.5h14v-132h-21
q-34 0 -57.5 -19.5t-23.5 -59t48 -63t119 -23.5q230 0 230 167q0 39 -14 63.5t-47 24.5t-45.5 -36t-8.5 -124h-137q-9 140 24.5 202t108.5 75l1 61h-274z" />
    <glyph glyph-name="uF01EC" unicode="&#xf01ec;" horiz-adv-x="857" 
d="M-20 740h897v-140h-95v-600h-164v122l-143 -183h-185q294 327 328 369v58h-105q-6 -223 -228 -223q-123 0 -180.5 65t-57.5 169v120h164v-93q0 -61 16 -91t58 -30t54.5 29t12.5 92v93h266v103h-638v140z" />
    <glyph glyph-name="uF01ED" unicode="&#xf01ed;" horiz-adv-x="938" 
d="M958 740v-140h-95v-600h-164v113l-146 -235h-168q173 233 261 352h-160q24 -21 24 -67q0 -68 -42 -110t-118.5 -42t-115.5 33v-104h-155v264h155q0 -67 74 -67q30 0 47.5 13.5t17.5 33.5t-5.5 29t-20.5 13q-19 5 -58.5 5t-65 2.5t-57.5 12t-53 26.5t-35.5 49.5
t-14.5 77.5q0 78 58 115t147 37h39v49h-327v140h978zM699 356v244h-227v-179h-155q-46 0 -67 -6t-21 -24t11 -25.5t24 -8.5t42 -1h393z" />
    <glyph glyph-name="uF01EE" unicode="&#xf01ee;" horiz-adv-x="897" 
d="M-20 740h937v-140h-95v-600h-164v81l-127 -154h-179q230 220 306 297v8h-124q-20 -82 -82.5 -128t-159.5 -46t-161 50t-75 135h160q7 -21 28.5 -33.5t58 -12.5t59.5 29t23 74t-23 74t-60 29q-71 0 -86 -46h-160q11 85 75 135t160.5 50t159 -45t82.5 -125h125v228h-678
v140z" />
    <glyph glyph-name="uF01EF" unicode="&#xf01ef;" horiz-adv-x="649" 
d="M460 404h-82q-75 0 -120 -30.5t-45 -90t35 -92t93 -32.5t89.5 33t31.5 89h156q0 -177 -141 -237l111 -141h-155l-77 115l-77 -115h-155l104 132q-82 26 -129 89.5t-47 154.5q0 112 66.5 181.5t177.5 81.5v58h-316v140h689v-140h-209v-196z" />
    <glyph glyph-name="uF01F0" unicode="&#xf01f0;" horiz-adv-x="671" 
d="M691 600h-272v-66q92 -22 147 -87t55 -155t-42 -150.5t-114 -89.5l109 -138h-155l-77 115l-77 -115h-155l107 135q-76 29 -120 90t-44 152t55 156t147 87v66h-275v140h711v-140zM459 286q0 54 -33 87t-89 33t-89 -33t-33 -87t33 -87t89 -33t89 33t33 87z" />
    <glyph glyph-name="uF01F1" unicode="&#xf01f1;" horiz-adv-x="568" 
d="M475 411h-155q-88 0 -88 -38q0 -24 21 -30.5t68 -6.5q217 0 217 -174q0 -111 -102 -157l111 -140h-155l-77 115l-77 -115h-155l106 134q-60 22 -96 68t-39 112h162q3 -36 27 -54t62 -18q71 0 71 52q0 29 -22 40t-69 11q-219 0 -219 174q0 78 58.5 117.5t146.5 39.5h39v59
h-330v140h608v-140h-113v-189z" />
    <glyph glyph-name="uF01F2" unicode="&#xf01f2;" horiz-adv-x="644" 
d="M494 410h-106q-81 -1 -130 -39t-49 -105q0 -138 167 -138q49 0 78 17.5t29 49.5q0 48 -42.5 48t-42.5 -48h-136q-2 83 42.5 127.5t131 44.5t141.5 -45.5t55 -121.5q0 -135 -131 -187l109 -138h-155l-77 115l-77 -115h-155l103 131q-93 27 -147 93t-54 166
q0 127 76.5 197.5t205.5 81.5v56h-350v140h684v-140h-170v-190z" />
    <glyph glyph-name="uF01F3" unicode="&#xf01f3;" horiz-adv-x="899" 
d="M-20 740h939v-140h-95v-600h-164v182l-133 -182h-178q277 334 311 377v223h-123v-183q0 -108 -56 -169.5t-171 -61.5t-171 61.5t-56 169.5v183h-103v140zM375 410v190h-130v-190q0 -84 65 -84t65 84z" />
    <glyph glyph-name="uF01F4" unicode="&#xf01f4;" horiz-adv-x="706" 
d="M226 254h-163q0 123 66 198.5t183 75.5q95 0 155 -58v130h-487v140h746v-140h-95v-600h-164v173l-163 -173h-215v7q31 30 194 178t167 151q-32 54 -109 54q-55 0 -85 -38t-30 -98z" />
    <glyph glyph-name="uF01F5" unicode="&#xf01f5;" horiz-adv-x="789" 
d="M550 740h259v-140h-95v-600h-164v169l-237 -225h-177v10q21 18 75 66t80 71q-132 17 -191.5 116t-37.5 261h114q148 0 148 84q0 26 -14 40.5t-38.5 14.5t-37.5 -18.5t-11 -50.5h-149q-4 99 54.5 154t147 55t147 -50.5t58.5 -145.5t-66 -149t-183 -55q-6 -55 29 -92
t112 -37t127 58t50 163v301z" />
    <glyph glyph-name="uF01F6" unicode="&#xf01f6;" horiz-adv-x="613" 
d="M521 387h-177q-55 0 -88.5 -27.5t-33.5 -74t26 -70t68 -23.5t64 19.5t22 52.5h149v-292h-163v124l-122 -193h-162q90 120 124 167q-78 13 -124 67.5t-46 153.5q0 118 76.5 179.5t199.5 61.5h23v68h-377v140h653v-140h-112v-213z" />
    <glyph glyph-name="uF01F7" unicode="&#xf01f7;" horiz-adv-x="740" 
d="M757 740v-140h-92v-600h-165v158l-2 -1l-141 -198h-164q60 73 106 129q-96 2 -160 46t-64 129q0 114 108 153v6q-52 17 -83.5 59t-31.5 110.5t51 113.5t136.5 45t133.5 -53.5t42 -138.5h-129q1 25 -11.5 38.5t-32.5 13.5t-32.5 -12.5t-12.5 -32.5q0 -42 36 -60.5
t88 -18.5h62v-132h-40q-119 0 -119 -70q0 -34 29.5 -52.5t74.5 -18.5q69 0 112.5 44t43.5 117v366h257z" />
    <glyph glyph-name="uF01F8" unicode="&#xf01f8;" horiz-adv-x="834" 
d="M-20 740h874v-140h-95v-600h-164v119l-124 -175h-158q204 252 282 351v81h-164q35 -39 35 -104q0 -88 -57 -137.5t-155.5 -49.5t-162 59.5t-63.5 160t68 155t178 54.5h321v86h-615v140zM255 225q35 0 54.5 21t19.5 56q0 72 -74 72q-36 0 -57.5 -18.5t-21.5 -53t22 -56
t57 -21.5z" />
    <glyph glyph-name="uF01F9" unicode="&#xf01f9;" horiz-adv-x="693" 
d="M-20 740h733v-140h-95v-600h-165v237l-190 -265h-170q104 129 166 208q-87 14 -133 79.5t-46 166.5v174h-100v140zM245 600v-178q0 -117 106 -117q49 0 75.5 31t26.5 87v177h-208z" />
    <glyph glyph-name="uF01FA" unicode="&#xf01fa;" horiz-adv-x="972" 
d="M992 600h-397v-124q47 55 139 55t148 -63.5t56 -160.5q0 -118 -72.5 -181t-192.5 -47l-1 134q109 -5 109 89q0 40 -24.5 64t-67 24t-68.5 -29t-26 -74v-287h-165v254l-202 -282h-160q123 152 182 227q-87 14 -130 80.5t-43 170.5v150h-97v140h1012v-140zM242 600v-154
q0 -59 20.5 -90t75.5 -31q92 0 92 128v147h-188z" />
    <glyph glyph-name="uF01FB" unicode="&#xf01fb;" horiz-adv-x="667" 
d="M-20 740h707v-140h-95v-600h-157v126l-133 -172h-155v5l106 108q-98 8 -158 71.5t-60 168.5t69 175t173.5 70t157.5 -62v110h-455v140zM444 303q0 57 -37.5 92.5t-87 35.5t-83.5 -20l205 -137q3 14 3 29zM177 303q0 -59 38 -93.5t91 -34.5t85 23l-209 140q-5 -18 -5 -35z
" />
    <glyph glyph-name="uF01FC" unicode="&#xf01fc;" horiz-adv-x="893" 
d="M913 740v-140h-120v-600h-164v123l-166 -216h-158q263 311 324 384v54h-130v-40q0 -111 -54.5 -172.5t-156 -61.5t-166 57.5t-64.5 154.5t65.5 146.5t177.5 49.5h44v33q0 74 -19 88q-10 8 -26 8t-26 -7.5t-14 -24.5q-5 -27 -5 -64h-164q-3 238 206 238q108 0 155 -62.5
t47 -178.5v-30h130v261h284zM345 299v46h-42q-41 0 -67 -17.5t-26 -50.5t19.5 -50.5t50.5 -17.5q65 0 65 90z" />
    <glyph glyph-name="uF01FD" unicode="&#xf01fd;" horiz-adv-x="860" 
d="M880 740v-140h-95v-600h-164v108l-139 -191h-158q234 290 297 370v46h-136v-40q0 -111 -54.5 -172.5t-156 -61.5t-166 57.5t-64.5 154.5t65.5 146.5t177.5 49.5h44v133h-351v140h900zM331 287v46h-42q-41 0 -67 -17.5t-26 -50.5t19.5 -50.5t50.5 -17.5q65 0 65 90z
M621 467v133h-136v-133h136z" />
    <glyph glyph-name="uF01FE" unicode="&#xf01fe;" horiz-adv-x="758" 
d="M-20 740h798v-140h-95v-600h-164v161l-162 -214h-166l124 142q-134 9 -198.5 102.5t-55.5 246.5q54 0 86 9t46.5 31t18.5 44t4 62v16h-236v140zM377 600v-23q0 -113 -29.5 -164t-116.5 -62q0 -60 37 -96.5t106 -36.5t107 41.5t38 111.5v229h-142z" />
    <glyph glyph-name="uF01FF" unicode="&#xf01ff;" horiz-adv-x="911" 
d="M-20 740h951v-140h-240v-89q82 -14 132 -76t50 -166q0 -127 -81.5 -196.5t-225.5 -59.5v142q142 -9 142 115q0 47 -21.5 74t-62.5 27q-102 0 -82 -165h-150q18 165 -80 165q-42 0 -63 -27t-21 -74q0 -124 142 -115v-142q-144 -10 -225.5 59.5t-81.5 192.5t63.5 186.5
t163.5 63.5q129 0 179 -100q22 47 64 72v113h-553v140zM807 -23l112 -142h-155l-77 115l-77 -115h-155l112 142h240z" />
    <glyph glyph-name="uF0200" unicode="&#xf0200;" horiz-adv-x="645" 
d="M-20 740h685v-140h-95v-600h-157v135l-137 -176h-150v5q5 6 108 109q-88 10 -142.5 73.5t-54.5 161t64.5 168.5t162 71t149.5 -66v119h-433v140zM413 303v1q0 49 -28.5 78t-78 29t-79.5 -30t-30 -78t30 -78t79.5 -30t78 29.5t28.5 78.5z" />
    <glyph glyph-name="uF0201" unicode="&#xf0201;" horiz-adv-x="846" 
d="M350 301l-131 -104h-184v10q16 12 196 155q-73 42 -106.5 85.5t-33.5 106.5q0 84 61.5 139.5t158 55.5t158 -55.5t61.5 -139t-82 -165.5q72 -33 166 -73v424h252v-140h-95v-600h-157v174l-34 17l-206 -202h-174v5q51 51 262 253zM366 591.5q-19 20.5 -52.5 20.5
t-53.5 -20.5t-20 -54t24.5 -55t64.5 -39.5q56 51 56 97q0 31 -19 51.5z" />
    <glyph glyph-name="uF0202" unicode="&#xf0202;" horiz-adv-x="701" 
d="M-20 740h741v-140h-95v-600h-165v219l-177 -247h-160q86 107 149 185q-92 9 -143.5 70.5t-51.5 162.5v210h-98v140zM461 600h-218v-1l218 -146v147zM243 404q0 -55 28.5 -87t91 -32t86.5 59l-206 137v-77z" />
    <glyph glyph-name="uF0203" unicode="&#xf0203;" horiz-adv-x="823" 
d="M843 740v-140h-95v-600h-154v207l-50 -88h-127q87 109 135 170h-363v-76q0 -67 13 -77q7 -5 23 -5t22 16.5t6 60.5h140q-4 -94 -35 -148q-34 -61 -137 -61q-188 0 -188 217v185h81q81 0 114 35t33 112v52h-311v140h893zM594 423v177h-168v-62q0 -66 -20 -115h188z" />
    <glyph glyph-name="uF0204" unicode="&#xf0204;" horiz-adv-x="618" 
d="M487 420h-164q-34 0 -51.5 -8t-17.5 -31t20 -34q22 3 47 3q87 0 147.5 -38t81.5 -113l-112 -105h-145l108 105q-27 32 -77 32t-81 -31.5t-31 -82.5t31 -78t78 -27q68 0 82 40h155q-11 -78 -78.5 -120.5t-163.5 -42.5q-116 0 -185.5 66t-69.5 173t80 168q-49 41 -49 108
t51 107t146 40h33v49h-342v140h658v-140h-151v-180z" />
    <glyph glyph-name="uF0205" unicode="&#xf0205;" horiz-adv-x="927" 
d="M947 600h-217v-109q78 -18 125.5 -78t47.5 -140t-32 -134.5t-87 -82.5h18l112 -142h-155l-77 115l-77 -115h-155l111 141q-59 28 -86 84q-22 -55 -78 -82t-115 -27q-102 0 -168 64t-66 170t66 170t168 64q60 0 113.5 -26t80.5 -84q31 66 96 93v119h-592v140h967v-140z
M302 170q42 0 68 26t26 68q-1 42 -26.5 68t-68 26t-68 -26t-25.5 -68.5t26 -68t68 -25.5zM650 170q42 0 68 26t26 68t-26 68t-68 26t-68 -26.5t-26 -68.5t26 -67.5t68 -25.5z" />
    <glyph glyph-name="uF0206" unicode="&#xf0206;" horiz-adv-x="987" 
d="M1007 600h-417v-115q47 57 140 57t148.5 -67.5t55.5 -166.5q0 -122 -84.5 -181t-204.5 -34l-1 129q61 -11 93 13t32 69.5t-23 71.5t-66 26t-66.5 -28t-23.5 -75v-299h-157v141l-140 -187h-168q74 87 117 139q-78 18 -123 76.5t-45 147.5t57.5 157t154.5 68t147 -64v122
h-453v140h1027v-140zM335 402q-45 0 -70.5 -25.5t-25.5 -68.5t25.5 -68.5t70 -25.5t71.5 25.5t27 68.5t-26.5 68.5t-71.5 25.5zM25 144q29 0 49 -20t20 -49t-20 -49t-49 -20t-49 20t-20 49t20 49t49 20z" />
    <glyph glyph-name="uF0207" unicode="&#xf0207;" horiz-adv-x="958" 
d="M-20 740h998v-140h-95v-600h-157v167q-41 -51 -121 -51q-25 0 -48 6l-181 -221h-168v10q30 34 118 127q-255 11 -255 271v98h19q96 2 124.5 36t28.5 148v9h-263v140zM237 287q0 -61 30 -91t96.5 -30t95.5 23q-40 55 -40 139t52 142.5t133 58.5t122 -51v122h-318v-8
q0 -157 -33 -219t-138 -76v-10zM588 264q22 -21 58.5 -21t57.5 21.5t21 59t-20 58.5t-57.5 21t-59.5 -21.5t-22 -59t22 -58.5zM-3.5 56.5q27.5 27.5 67 27.5t67 -27.5t27.5 -67t-27.5 -67t-67 -27.5t-67 27.5t-27.5 67t27.5 67z" />
    <glyph glyph-name="uF0208" unicode="&#xf0208;" horiz-adv-x="815" 
d="M-20 740h855v-140h-95v-600h-164v155l-139 -162h-178q306 321 317 337v270h-132v-196q0 -118 -46 -178.5t-154.5 -60.5t-159 56t-48.5 170h164q0 -26 2.5 -42.5t13.5 -30t28.5 -13.5t27 7t12.5 23q6 25 6 45v220h-310v140zM44.5 69.5q27.5 27.5 67 27.5t67 -27.5
t27.5 -67t-27.5 -67t-67 -27.5t-67 27.5t-27.5 67t27.5 67z" />
    <glyph glyph-name="uF0209" unicode="&#xf0209;" horiz-adv-x="857" 
d="M-20 740h897v-140h-95v-600h-164v122l-143 -183h-185q294 327 328 369v58h-105q-6 -223 -228 -223q-123 0 -180.5 65t-57.5 169v120h164v-93q0 -61 16 -91t58 -30t54.5 29t12.5 92v93h266v103h-638v140zM42.5 8.5q27.5 27.5 67 27.5t67 -27.5t27.5 -67t-27.5 -67
t-67 -27.5t-67 27.5t-27.5 67t27.5 67z" />
    <glyph glyph-name="uF020A" unicode="&#xf020a;" horiz-adv-x="972" 
d="M992 600h-397v-124q47 55 139 55t148 -63.5t56 -160.5q0 -118 -72.5 -181t-192.5 -47l-1 134q109 -5 109 89q0 40 -24.5 64t-67 24t-68.5 -29t-26 -74v-287h-165v254l-202 -282h-160q123 152 182 227q-87 14 -130 80.5t-43 170.5v150h-97v140h1012v-140zM242 600v-154
q0 -59 20.5 -90t75.5 -31q92 0 92 128v147h-188zM85 197.5q23 -22.5 23 -55t-23 -55t-55 -22.5t-54.5 22.5t-22.5 55t22.5 55t54.5 22.5t55 -22.5z" />
    <glyph glyph-name="uF020B" unicode="&#xf020b;" horiz-adv-x="672" 
d="M930 600h-340v-115q47 57 140 57t146.5 -67t53.5 -167h-161q0 42 -23 68t-66 26t-66.5 -28t-23.5 -75v-299h-157v144l-140 -190h-168q74 87 117 139q-78 18 -123 76.5t-45 147.5t57.5 157t154.5 68t147 -64v122h-453v140h950v-140zM335 402q-45 0 -70.5 -25.5
t-25.5 -68.5t25.5 -68.5t70 -25.5t71.5 25.5t27 68.5t-26.5 68.5t-71.5 25.5z" />
    <glyph glyph-name="uF020C" unicode="&#xf020c;" horiz-adv-x="636" 
d="M237 287q0 -61 30 -91t98.5 -30t97.5 26q-44 53 -44 131q0 96 64 151t165 55t164 -55t63 -151.5t-64 -151.5t-163 -55q-46 0 -86 12l-186 -227h-168v5q6 6 127 132q-264 7 -264 271v98h20q96 2 124 36.5t28 147.5v9h-263v140h893v-140h-465v-8q0 -157 -33 -219t-138 -76
v-10zM648 243q38 0 60 21t22 58.5t-22 59t-60 21.5t-60 -21.5t-22 -59t22 -58.5t60 -21z" />
    <glyph glyph-name="uF020D" unicode="&#xf020d;" horiz-adv-x="505" 
d="M-20 740h609v-140h-145v-196q0 -118 -46 -178.5t-154.5 -60.5t-159 56t-48.5 170h164q0 -26 2.5 -42.5t13.5 -30t28.5 -13.5t27 7t12.5 23q6 25 6 45v220h-310v140zM437 -7h-178q319 336 330 352v-163z" />
    <glyph glyph-name="uF020E" unicode="&#xf020e;" horiz-adv-x="364" 
d="M620 740v-140h-377q0 -57 15.5 -84.5t62.5 -27.5h48v-132h-51q-87 0 -87 -61q0 -63 109 -63q122 0 122 126h142q0 -125 -70 -193l-204 -212h-168v7q34 26 152 138q-68 3 -120.5 20t-90 58t-37.5 97.5t26.5 92t66.5 52.5v6q-43 20 -62 59.5t-19 116.5h-98v140h640z" />
    <glyph glyph-name="uF020F" unicode="&#xf020f;" horiz-adv-x="716" 
d="M-20 740h756v-140h-261v-189h-155q-88 0 -88 -38q0 -24 21 -30.5t68 -6.5q217 0 217 -174q0 -110 -102 -157l110 -140h-155l-77 115l-77 -115h-155l106 135q-60 22 -95.5 68t-38.5 111h162q3 -36 27 -54t62 -18q71 0 71 52q0 29 -22 40t-69 11q-219 0 -219 174
q0 78 58.5 117.5t146.5 39.5h39v59h-330v140zM541.5 417q25.5 25 61 25t60.5 -25t25 -60.5t-25 -61t-60.5 -25.5t-61 25.5t-25.5 61t25.5 60.5zM236 -179h154l133 -217h-161z" />
    <glyph glyph-name="uF0210" unicode="&#xf0210;" horiz-adv-x="410" 
d="M-20 740h685v-140h-685v140zM421 382h-40q-39 0 -65.5 -21t-26.5 -60.5t30 -61t77 -21.5q115 0 115 151h145q0 -151 -86 -227l-187 -194h-168v7q54 43 143 129q-97 8 -160 57.5t-63 136.5q0 63 43 104h-128v129h371v-129z" />
    <glyph glyph-name="uF0211" unicode="&#xf0211;" horiz-adv-x="830" 
d="M850 600h-603v-10q0 -69 16 -97.5t67 -28.5h14v-132h-21q-34 0 -57.5 -19.5t-23.5 -59t48 -63t119 -23.5q230 0 230 167q0 86 -56 86q-34 0 -48.5 -37t-10.5 -121h-137q-12 169 43 228q27 29 62 41t86 12q98 0 149 -56t51 -157t-49 -173t-148 -104l108 -137h-155l-77 115
l-77 -115h-155l95 121q-108 15 -176.5 66t-68.5 135q0 110 95 156v6q-50 23 -69 68t-19 123v9h-102v140h870v-140z" />
    <glyph glyph-name="uF0212" unicode="&#xf0212;" horiz-adv-x="551" 
d="M-20 740h741v-140h-741v140zM720 497v-131h-207v-36q0 -234 -226 -234q-123 0 -181.5 65.5t-58.5 168.5v167h164v-140q0 -61 16 -91t58 -30t54.5 29t12.5 92v140h368zM512 -61h-175q372 389 383 405v-154z" />
    <glyph glyph-name="uF0213" unicode="&#xf0213;" horiz-adv-x="545" 
d="M472 421h-155q-46 0 -67 -6t-21 -24t11 -25.5t24 -8.5t42 -1h409v-237l-162 -241h-168q185 231 278 348h-155q15 -15 15 -48q0 -77 -47.5 -122t-126.5 -45t-115 33v-104h-155v264h155q0 -67 74 -67q30 0 47.5 13.5t17.5 33.5t-5.5 29t-20.5 13q-19 5 -58.5 5t-65 2.5
t-57.5 12t-53 26.5t-35.5 49.5t-14.5 77.5q0 78 58 115t147 37h39v49h-327v140h735v-140h-243v-179z" />
    <glyph glyph-name="uF0214" unicode="&#xf0214;" horiz-adv-x="565" 
d="M-20 740h749v-140h-749v140zM131 492q64 50 160.5 50t159 -45t82.5 -125h195v-223l-184 -222h-179q202 201 305 305h-136q-20 -82 -82.5 -128t-159.5 -46t-161 50t-75 135h160q7 -21 28.5 -33.5t58 -12.5t59.5 29t23 74t-23 74t-60 29q-71 0 -86 -46h-160q11 85 75 135z
" />
    <glyph glyph-name="uF0215" unicode="&#xf0215;" horiz-adv-x="649" 
d="M460 404h-82q-75 0 -120 -30.5t-45 -90t35 -92t93 -32.5t89.5 33t31.5 89h156q0 -173 -136 -235l106 -135h-155l-72 107h-10l-72 -107h-155l99 125q-80 28 -125.5 90.5t-45.5 152.5q0 112 66.5 181.5t177.5 81.5v58h-316v140h689v-140h-209v-196zM283 -135h154l133 -217
h-161z" />
    <glyph glyph-name="uF0216" unicode="&#xf0216;" horiz-adv-x="671" 
d="M691 600h-272v-66q92 -22 147 -87t55 -155t-42.5 -151t-116.5 -90l112 -141h-155l-77 115l-77 -115h-155l109 139q-76 27 -121 89t-45 153t55 156t147 87v66h-275v140h711v-140zM459 286q0 54 -33 87t-89 33t-89 -33t-33 -87t33 -87t89 -33t89 33t33 87zM270 -135h154
l133 -217h-161z" />
    <glyph glyph-name="uF0217" unicode="&#xf0217;" horiz-adv-x="568" 
d="M475 411h-155q-88 0 -88 -38q0 -24 21 -30.5t68 -6.5q217 0 217 -174q0 -111 -102 -157l111 -140h-155l-77 115l-77 -115h-155l106 134q-60 22 -96 68t-39 112h162q3 -36 27 -54t62 -18q71 0 71 52q0 29 -22 40t-69 11q-219 0 -219 174q0 78 58.5 117.5t146.5 39.5h39v59
h-330v140h608v-140h-113v-189zM246 -174h154l133 -217h-161z" />
    <glyph glyph-name="uF0218" unicode="&#xf0218;" horiz-adv-x="644" 
d="M494 410h-106q-81 -1 -130 -39t-49 -105q0 -138 167 -138q49 0 78 17.5t29 49.5q0 48 -42.5 48t-42.5 -48h-136q-2 83 42.5 127.5t131 44.5t141.5 -45.5t55 -121.5q0 -135 -131 -187l109 -138h-155l-77 115l-77 -115h-155l103 131q-93 27 -147 93t-54 166
q0 127 76.5 197.5t205.5 81.5v56h-350v140h684v-140h-170v-190zM312 -169h154l133 -217h-161z" />
    <glyph glyph-name="uF0219" unicode="&#xf0219;" horiz-adv-x="581" 
d="M-20 740h683v-140h-126v-183q0 -108 -56 -169.5t-171 -61.5t-171 61.5t-56 169.5v183h-103v140zM375 410v190h-130v-190q0 -84 65 -84t65 84zM527 0h-178q303 365 314 381v-183z" />
    <glyph glyph-name="uF021A" unicode="&#xf021a;" horiz-adv-x="380" 
d="M341 390q-55 0 -85 -38t-30 -98h-163q0 123 67 199t188 76t187 -72t65 -194l-266 -263h-215v7q61 56 371 305q-24 78 -119 78zM569 600h-589v140h589v-140z" />
    <glyph glyph-name="uF021B" unicode="&#xf021b;" horiz-adv-x="471" 
d="M551 384h152q0 -63 -27 -124t-77 -105l-209 -211h-168v7q26 19 143 129q-158 8 -241.5 106.5t-61.5 281.5h114q148 0 148 84q0 26 -14 40.5t-38.5 14.5t-37.5 -18.5t-11 -50.5h-149q-4 99 54.5 154t147 55t147 -50.5t58.5 -145.5t-66 -149t-183 -55q-4 -65 41.5 -96.5
t118 -31.5t116 40t43.5 125z" />
    <glyph glyph-name="uF021C" unicode="&#xf021c;" horiz-adv-x="613" 
d="M553 -102l133 -217h-161l-126 217h154zM551 -28h-163v124l-122 -193h-162q90 120 124 167q-78 13 -124 67.5t-46 153.5q0 118 76.5 179.5t199.5 61.5h23v68h-377v140h653v-140h-112v-213h-177q-55 0 -88.5 -27.5t-33.5 -74t26 -70t68 -23.5t64 19.5t22 52.5h149v-292z
" />
    <glyph glyph-name="uF021D" unicode="&#xf021d;" horiz-adv-x="433" 
d="M510 374h147q0 -146 -81 -222l-184 -192h-168v7q55 44 129 113q-112 2 -191 44q-40 21 -63.5 58.5t-23.5 90.5t30.5 89.5t77.5 53.5v6q-52 17 -83.5 59t-31.5 110.5t51 113.5t136.5 45t133.5 -53.5t42 -138.5h-129q1 25 -11.5 38.5t-32.5 13.5t-32.5 -12.5t-12.5 -32.5
q0 -42 36 -60.5t88 -18.5h62v-132h-40q-119 0 -119 -70q0 -36 33.5 -53.5t87.5 -17.5q149 0 149 161z" />
    <glyph glyph-name="uF021E" unicode="&#xf021e;" horiz-adv-x="498" 
d="M678 348v-159l-197 -245h-168q354 388 365 404zM255 374q-36 0 -57.5 -18.5t-21.5 -53t22 -56t57 -21.5t54.5 21t19.5 56q0 72 -74 72zM678 514v-138h-247q35 -39 35 -104q0 -88 -57 -137.5t-155.5 -49.5t-162 59.5t-63.5 160t68 155t178 54.5h404zM678 600h-698v140h698
v-140z" />
    <glyph glyph-name="uF021F" unicode="&#xf021f;" horiz-adv-x="369" 
d="M613 600h-368v-178q0 -117 107 -117q56 0 78.5 30t22.5 87h148q0 -119 -59 -184l-229 -268h-180v5q84 84 189 192q-115 8 -178.5 75.5t-63.5 183.5v174h-100v140h633v-140z" />
    <glyph glyph-name="uF0220" unicode="&#xf0220;" horiz-adv-x="683" 
d="M992 600h-397v-124q47 55 139 55t146 -64.5t52 -164.5h-149q0 39 -25.5 63.5t-68 24.5t-68.5 -29t-26 -74v-287h-165v253l-202 -281h-170q124 155 183 229q-81 17 -122.5 83t-41.5 166v150h-97v140h1012v-140zM242 600v-154q0 -59 20.5 -90t75.5 -31q92 0 92 128v147
h-188z" />
    <glyph glyph-name="uF0221" unicode="&#xf0221;" horiz-adv-x="359" 
d="M-20 740h611v-140h-611v140zM103.5 134q-68.5 62 -68.5 173t78 178t192 67t189 -69t75 -180q0 -83 -66 -155l-182 -194h-155v5l117 106q-111 7 -179.5 69zM447 303q0 56 -38.5 92t-88.5 36t-84 -20l208 -139q3 14 3 31zM177 303q0 -59 38 -93.5t90 -34.5t88 22l-211 141
q-5 -18 -5 -35z" />
    <glyph glyph-name="uF0222" unicode="&#xf0222;" horiz-adv-x="577" 
d="M509 476h222v-134h-222v-40q0 -111 -54.5 -172.5t-156 -61.5t-166 57.5t-64.5 154.5t65.5 146.5t177.5 49.5h44v36q0 74 -19 88q-10 8 -26 8t-26 -7.5t-14 -24.5q-5 -27 -5 -64h-164q-3 238 206 238q108 0 155 -62.5t47 -178.5v-33zM355 296v46h-42q-41 0 -67 -17.5
t-26 -50.5t19.5 -50.5t50.5 -17.5q65 0 65 90zM517 -83h-188q391 381 402 397v-150z" />
    <glyph glyph-name="uF0223" unicode="&#xf0223;" horiz-adv-x="554" 
d="M752 600h-256v-124h236v-134h-236v-40q0 -111 -54.5 -172.5t-156 -61.5t-166 57.5t-64.5 154.5t65.5 146.5t177.5 49.5h44v124h-362v140h772v-140zM342 296v46h-42q-41 0 -67 -17.5t-26 -50.5t19.5 -50.5t50.5 -17.5q65 0 65 90zM517 -83h-188q391 381 402 397v-150z" />
    <glyph glyph-name="uF0224" unicode="&#xf0224;" horiz-adv-x="430" 
d="M515 371h145q3 -139 -79 -218l-200 -206h-170v5q15 15 146 126q-157 5 -232 101t-64 259q54 0 86 9t46.5 31t18.5 44t4 62v16h-236v140h680v-140h-283v-23q0 -113 -29.5 -164t-116.5 -62q-1 -62 35 -97.5t106 -35.5q143 0 143 153z" />
    <glyph glyph-name="uF0225" unicode="&#xf0225;" horiz-adv-x="911" 
d="M-20 740h951v-140h-240v-89q82 -14 132 -76t50 -166q0 -127 -81.5 -196.5t-225.5 -59.5v142q142 -9 142 115q0 47 -21.5 74t-62.5 27q-102 0 -82 -165h-150q18 165 -80 165q-42 0 -63 -27t-21 -74q0 -124 142 -115v-142q-144 -10 -225.5 59.5t-81.5 192.5t63.5 186.5
t163.5 63.5q129 0 179 -100q22 47 64 72v113h-553v140zM807 -23l112 -142h-155l-77 115l-77 -115h-155l112 142h240zM603 -199h154l133 -217h-161z" />
    <glyph glyph-name="uF0226" unicode="&#xf0226;" horiz-adv-x="334" 
d="M-20 740h600v-140h-600v140zM107 134.5q-70 59.5 -70 170.5t74.5 176.5t188.5 65.5t186 -64.5t72 -174t-71 -174.5l-161 -175h-155v5l117 105q-111 6 -181 65.5zM197 303q0 -48 30 -78t80 -30t80.5 30t30.5 78t-30.5 78t-80.5 30t-80 -30t-30 -78z" />
    <glyph glyph-name="uF0227" unicode="&#xf0227;" horiz-adv-x="484" 
d="M331 301q-80 -66 -131 -104h-184v10q16 12 196 155q-73 42 -106.5 85.5t-33.5 106.5q0 84 61.5 139.5t158 55.5t158 -55.5t61.5 -139.5t-83 -165q98 -44 151 -65v-132l1 -5l-205 -198h-174v5q26 26 258 248zM347 591.5q-19 20.5 -52.5 20.5t-53.5 -20.5t-20 -54t24.5 -55
t64.5 -39.5q56 51 56 97q0 31 -19 51.5z" />
    <glyph glyph-name="uF0228" unicode="&#xf0228;" horiz-adv-x="393" 
d="M604 600h-361l355 -227q0 -88 -61 -151l-204 -252h-170v5q43 43 169 171q-116 5 -185 71.5t-69 184.5v198h-98v140h624v-140zM243 404q0 -119 106 -119q37 0 64.5 16.5t36.5 46.5l-207 133v-77z" />
    <glyph glyph-name="uF0229" unicode="&#xf0229;" horiz-adv-x="516" 
d="M426 600v-62q0 -66 -20 -115h272v-165l-134 -139h-127q102 96 179 170h-407v-76q0 -67 13 -77q7 -5 23 -5t22 16.5t6 60.5h140q-4 -94 -35 -148q-34 -61 -137 -61q-188 0 -188 217v185h81q81 0 114 35t33 112v52h-311v140h728v-140h-252z" />
    <glyph glyph-name="uF022A" unicode="&#xf022a;" horiz-adv-x="618" 
d="M487 420h-164q-34 0 -51.5 -8t-17.5 -31t20 -34q22 3 47 3q87 0 147.5 -38t81.5 -113l-112 -105h-145l108 105q-27 32 -77 32t-81 -31.5t-31 -82.5t31 -78t78 -27q68 0 82 40h155q-11 -78 -78.5 -120.5t-163.5 -42.5q-116 0 -185.5 66t-69.5 173t80 168q-49 41 -49 108
t51 107t146 40h33v49h-342v140h658v-140h-151v-180zM235 -181h154l133 -217h-161z" />
    <glyph glyph-name="uF022B" unicode="&#xf022b;" horiz-adv-x="927" 
d="M-20 740h967v-140h-967v140zM282 30q-102 0 -168 64t-66 170t66 170t168 64q60 0 113.5 -26t80.5 -84q53 110 194 110q101 0 167 -64t66 -170q0 -71 -32 -125.5t-87 -82.5h7l112 -142h-155l-77 115l-77 -115h-155l112 142h7q-56 29 -83 83q-22 -55 -78 -82t-115 -27z
M302 170q42 0 68 26t26 68q-1 42 -26.5 68t-68 26t-68 -26t-25.5 -68.5t26 -68t68 -25.5zM650 358q-42 0 -68 -26.5t-26 -68.5t26 -67.5t68 -25.5t68 26t26 68t-26 68t-68 26z" />
    <glyph glyph-name="uF022C" unicode="&#xf022c;" horiz-adv-x="596" 
d="M930 600h-340v-115q47 57 140 57t146.5 -67t53.5 -167h-161q0 42 -23 68t-66 26t-66.5 -28t-23.5 -75v-299h-157v144l-140 -190h-168q74 87 117 139q-78 18 -123 76.5t-45 147.5t57.5 157t154.5 68t147 -64v122h-453v140h950v-140zM335 402q-45 0 -70.5 -25.5
t-25.5 -68.5t25.5 -68.5t70 -25.5t71.5 25.5t27 68.5t-26.5 68.5t-71.5 25.5zM42 150q29 0 49 -20t20 -49t-20.5 -49t-48.5 -20t-48.5 20t-20.5 49t20 49t49 20z" />
    <glyph glyph-name="uF022D" unicode="&#xf022d;" horiz-adv-x="633" 
d="M237 287q0 -61 30 -91t98.5 -30t97.5 26q-44 53 -44 131q0 96 64 151t165 55t164 -55t63 -151.5t-64 -151.5t-163 -55q-46 0 -86 12l-186 -227h-168v5q6 6 127 132q-264 7 -264 271v98h20q96 2 124 36.5t28 147.5v9h-263v140h893v-140h-465v-8q0 -157 -33 -219t-138 -76
v-10zM648 243q38 0 60 21t22 58.5t-22 59t-60 21.5t-60 -21.5t-22 -59t22 -58.5t60 -21zM-18.5 52.5q27.5 27.5 67 27.5t67 -27.5t27.5 -67t-27.5 -67t-67 -27.5t-67 27.5t-27.5 67t27.5 67z" />
    <glyph glyph-name="uF022E" unicode="&#xf022e;" horiz-adv-x="470" 
d="M-20 740h609v-140h-145v-196q0 -118 -46 -178.5t-154.5 -60.5t-159 56t-48.5 170h164q0 -26 2.5 -42.5t13.5 -30t28.5 -13.5t27 7t12.5 23q6 25 6 45v220h-310v140zM437 -7h-178q319 336 330 352v-163zM54.5 9.5q27.5 27.5 67 27.5t67 -27.5t27.5 -67t-27.5 -67
t-67 -27.5t-67 27.5t-27.5 67t27.5 67z" />
    <glyph glyph-name="uF022F" unicode="&#xf022f;" horiz-adv-x="529" 
d="M-20 740h741v-140h-741v140zM720 497v-131h-207v-36q0 -234 -226 -234q-123 0 -181.5 65.5t-58.5 168.5v167h164v-140q0 -61 16 -91t58 -30t54.5 29t12.5 92v140h368zM512 -61h-175q372 389 383 405v-154zM2.5 49.5q27.5 27.5 67 27.5t67 -27.5t27.5 -67t-27.5 -67
t-67 -27.5t-67 27.5t-27.5 67t27.5 67z" />
    <glyph glyph-name="uF0230" unicode="&#xf0230;" horiz-adv-x="574" 
d="M992 600h-397v-124q47 55 139 55t146 -64.5t52 -164.5h-149q0 39 -25.5 63.5t-68 24.5t-68.5 -29t-26 -74v-287h-165v253l-202 -281h-170q124 155 183 229q-81 17 -122.5 83t-41.5 166v150h-97v140h1012v-140zM242 600v-154q0 -59 20.5 -90t75.5 -31q92 0 92 128v147
h-188zM91 216.5q23 -22.5 23 -55t-23 -55t-55 -22.5t-54.5 22.5t-22.5 55t22.5 55t54.5 22.5t55 -22.5z" />
    <glyph glyph-name="uF0231" unicode="&#xf0231;" horiz-adv-x="1681" 
d="M1701 600h-417v-115q47 57 140 57t148.5 -67.5t55.5 -166.5q0 -122 -84.5 -181t-204.5 -34l-1 129q61 -11 93 13t32 69.5t-23 71.5t-66 26t-66.5 -28t-23.5 -75v-299h-157v138q-48 -64 -146 -64t-155.5 68t-57.5 166v14q-3 36 -26 58t-64 22t-64.5 -28t-23.5 -75v-299
h-157v138q-48 -64 -146 -64t-155.5 68t-57.5 166t57.5 166t154.5 68t147 -64v122h-453v140h1721v-140zM264.5 239.5q25.5 -25.5 70 -25.5t71.5 25.5t27 68.5t-26.5 68.5t-71.5 25.5t-70.5 -25.5t-25.5 -68.5t25.5 -68.5zM590 600v-115q47 57 129 57t133 -43q54 43 131 43
q94 0 144 -64v122h-537zM958.5 239.5q25.5 -25.5 70 -25.5t71.5 25.5t27 68.5t-26.5 68.5t-71.5 25.5t-70.5 -25.5t-25.5 -68.5t25.5 -68.5z" />
    <glyph glyph-name="uF0232" unicode="&#xf0232;" horiz-adv-x="1682" 
d="M1702 600h-417v-115q47 57 140 57t148.5 -67.5t55.5 -166.5q0 -122 -84.5 -181t-204.5 -34l-1 129q61 -11 93 13t32 69.5t-23 71.5t-66 26t-66.5 -28t-23.5 -75v-299h-157v138q-48 -64 -146 -64t-155.5 68t-57.5 166q0 42 -23 68t-66 26t-66.5 -28t-23.5 -75v-299h-157
v138q-48 -64 -146 -64t-155.5 68t-57.5 166t57.5 166t154.5 68t147 -64v122h-453v140h1722v-140zM264.5 239.5q25.5 -25.5 70 -25.5t71.5 25.5t27 68.5t-26.5 68.5t-71.5 25.5t-70.5 -25.5t-25.5 -68.5t25.5 -68.5zM590 600v-115q47 57 128.5 57t134.5 -43q54 43 131 43
q94 0 144 -64v122h-538zM959.5 239.5q25.5 -25.5 70 -25.5t71.5 25.5t27 68.5t-26.5 68.5t-71.5 25.5t-70.5 -25.5t-25.5 -68.5t25.5 -68.5zM937.5 -55.5q27.5 27.5 67 27.5t67 -27.5t27.5 -67t-27.5 -67t-67 -27.5t-67 27.5t-27.5 67t27.5 67zM266.5 -55.5
q27.5 27.5 67 27.5t67 -27.5t27.5 -67t-27.5 -67t-67 -27.5t-67 27.5t-27.5 67t27.5 67z" />
    <glyph glyph-name="uF0233" unicode="&#xf0233;" horiz-adv-x="1656" 
d="M1676 740v-140h-95v-600h-157v167q-41 -51 -121 -51h-9q-31 -57 -95.5 -88.5t-147.5 -31.5q-131 0 -206.5 73t-75.5 207v32q0 42 -23 68t-66 26t-66.5 -28t-23.5 -75v-299h-157v138q-48 -64 -146 -64t-155.5 68t-57.5 166t57.5 166t154.5 68t147 -64v122h-453v140h1696z
M264.5 239.5q25.5 -25.5 70 -25.5t71.5 25.5t27 68.5t-26.5 68.5t-71.5 25.5t-70.5 -25.5t-25.5 -68.5t25.5 -68.5zM590 600v-115q47 57 134 57q125 0 179 -109q22 18 30 54.5t8 103.5v9h-351zM935 258q0 -122 114 -122q81 0 108 53q-40 55 -40 139t52 142.5t133 58.5
t122 -51v122h-318v-8q0 -157 -33 -219t-138 -76v-39zM1286 264q22 -21 58.5 -21t57.5 21.5t21 59t-20 58.5t-57.5 21t-59.5 -21.5t-22 -59t22 -58.5z" />
    <glyph glyph-name="uF0234" unicode="&#xf0234;" horiz-adv-x="1357" 
d="M1377 740v-140h-95v-600h-165v145q-50 -63 -149.5 -63t-161.5 54.5t-62 136.5t45 124h-80q-49 0 -84 -32.5t-35 -84.5v-280h-157v138q-48 -64 -146 -64t-155.5 68t-57.5 166t57.5 166t154.5 68t147 -64v122h-453v140h1397zM264.5 239.5q25.5 -25.5 70 -25.5t71.5 25.5
t27 68.5t-26.5 68.5t-71.5 25.5t-70.5 -25.5t-25.5 -68.5t25.5 -68.5zM1117 369v231h-527v-132q50 58 158 58h277v-129h-36q-42 0 -66.5 -25.5t-24.5 -66.5t26.5 -64t77.5 -23t83 41t32 110z" />
    <glyph glyph-name="uF0235" unicode="&#xf0235;" horiz-adv-x="1570" 
d="M1589 740v-140h-95v-600h-164v366h-105v-36q0 -234 -228 -234q-115 0 -174.5 60t-59.5 154q0 41 -21 65t-62 24t-65.5 -29t-24.5 -75v-295h-157v138q-48 -64 -146 -64t-155.5 68t-57.5 166t57.5 166t154.5 68t147 -64v122h-453v140h1609zM264.5 239.5
q25.5 -25.5 70 -25.5t71.5 25.5t27 68.5t-26.5 68.5t-71.5 25.5t-70.5 -25.5t-25.5 -68.5t25.5 -68.5zM1330 497v103h-740v-121q48 59 144.5 59t143.5 -61.5t47 -162.5q0 -78 70 -78q42 0 55.5 29.5t13.5 91.5v140h266z" />
    <glyph glyph-name="uF0236" unicode="&#xf0236;" horiz-adv-x="1364" 
d="M1175 404h-82q-75 0 -120 -30.5t-45 -90t35 -92t93 -32.5t89.5 33t31.5 89h156q0 -125 -74.5 -194t-203 -69t-208.5 70t-80 191q0 13 2 35q-3 88 -89 88q-43 0 -66.5 -28t-23.5 -75v-299h-157v138q-48 -64 -146 -64t-155.5 68t-57.5 166t57.5 166t154.5 68t147 -64v122
h-453v140h1404v-140h-209v-196zM264.5 239.5q25.5 -25.5 70 -25.5t71.5 25.5t27 68.5t-26.5 68.5t-71.5 25.5t-70.5 -25.5t-25.5 -68.5t25.5 -68.5zM590 600v-115q47 57 133 57t135 -59q62 48 153 59v58h-421z" />
    <glyph glyph-name="uF0237" unicode="&#xf0237;" horiz-adv-x="1579" 
d="M1599 740v-140h-95v-600h-164v600h-123v-233q0 -108 -56 -169.5t-166 -61.5t-165.5 51.5t-64.5 144.5q-14 65 -83 65q-42 0 -67 -28t-25 -74v-295h-157v138q-48 -64 -146 -64t-155.5 68t-57.5 166t57.5 166t154.5 68t147 -64v122h-453v140h1619zM264.5 239.5
q25.5 -25.5 70 -25.5t71.5 25.5t27 68.5t-26.5 68.5t-71.5 25.5t-70.5 -25.5t-25.5 -68.5t25.5 -68.5zM590 600v-114q41 51 114 51q31 0 59 -11v74h-173zM1055 360v240h-130v-240q0 -84 65 -84t65 84z" />
    <glyph glyph-name="uF0238" unicode="&#xf0238;" horiz-adv-x="1119" 
d="M1139 600h-425v-180q50 64 147 64t154.5 -68t57.5 -168.5t-60.5 -164.5t-164.5 -64q-20 0 -43 3l-1 134q49 -1 76.5 24.5t27.5 69t-25.5 69t-70.5 25.5t-71.5 -26.5t-26.5 -71.5v-246h-164v351h-115q-57 0 -90 -28t-33 -84q0 -110 129 -110v-129h-32q-119 0 -190 55
t-71 174q0 77 47 126h-159l-1 136h515v109h-570v140h1159v-140z" />
    <glyph glyph-name="uF0239" unicode="&#xf0239;" horiz-adv-x="1404" 
d="M1424 740v-140h-95v-600h-164v351h-115q-57 0 -90 -28t-33 -84q0 -110 129 -110v-129h-32q-121 0 -191.5 58t-70.5 181q0 41 7 70q0 41 -23 67t-66 26t-66.5 -28t-23.5 -75v-299h-157v138q-48 -64 -146 -64t-155.5 68t-57.5 166t57.5 166t154.5 68t147 -64v122h-453v140
h1444zM264.5 239.5q25.5 -25.5 70 -25.5t71.5 25.5t27 68.5t-26.5 68.5t-71.5 25.5t-70.5 -25.5t-25.5 -68.5t25.5 -68.5zM1165 491v109h-575v-115q47 57 134 57q109 0 163 -82q65 31 160 31h118zM261.5 -54.5q27.5 27.5 67 27.5t67 -27.5t27.5 -67t-27.5 -67t-67 -27.5
t-67 27.5t-27.5 67t27.5 67z" />
    <glyph glyph-name="uF023A" unicode="&#xf023a;" horiz-adv-x="1843" 
d="M1863 740v-140h-95v-600h-164v151q-58 -73 -170.5 -73t-179.5 52.5t-93 146.5q-14 38 -37.5 56t-77 18t-86.5 -28t-33 -84q0 -110 129 -110v-129h-32q-121 0 -191.5 58t-70.5 181q0 41 7 70q0 41 -23 67t-66 26t-66.5 -28t-23.5 -75v-299h-157v138q-48 -64 -146 -64
t-155.5 68t-57.5 166t57.5 166t154.5 68t147 -64v122h-453v140h1883zM264.5 239.5q25.5 -25.5 70 -25.5t71.5 25.5t27 68.5t-26.5 68.5t-71.5 25.5t-70.5 -25.5t-25.5 -68.5t25.5 -68.5zM590 600v-115q47 57 134 57q108 0 164 -82q65 31 168 31t160 -47q55 12 70 43.5
t15 96.5v16h-711zM1462 600v-23q0 -113 -29.5 -164t-116.5 -62q0 -60 37 -96.5t106 -36.5t107 41.5t38 111.5v229h-142z" />
    <glyph glyph-name="uF023B" unicode="&#xf023b;" horiz-adv-x="1403" 
d="M786 7l361 329q-30 55 -107 55q-44 0 -73.5 -26t-36.5 -77h-161q0 51 -22 82.5t-67 31.5t-67.5 -27.5t-22.5 -75.5v-299h-157v138q-48 -64 -146 -64t-155.5 68t-57.5 166t57.5 166t154.5 68t147 -64v122h-453v140h1443v-140h-95v-600h-164v173l-163 -173h-215v7z
M264.5 239.5q25.5 -25.5 70 -25.5t71.5 25.5t27 68.5t-26.5 68.5t-71.5 25.5t-70.5 -25.5t-25.5 -68.5t25.5 -68.5zM1164 600h-574v-112q46 54 134.5 54t133.5 -78q56 64 152 64t154 -56v128z" />
    <glyph glyph-name="uF023C" unicode="&#xf023c;" horiz-adv-x="1719" 
d="M1739 740v-140h-95v-600h-157v124q-53 -65 -150 -65t-161.5 71t-64.5 173q0 27 4 48h-69q-57 0 -90 -28t-33 -84q0 -110 129 -110v-129h-32q-121 0 -191.5 58t-70.5 181q0 43 10 83q-4 36 -27 58t-63.5 22t-64 -28t-23.5 -75v-299h-157v138q-48 -64 -146 -64t-155.5 68
t-57.5 166t57.5 166t154.5 68t147 -64v122h-453v140h1759zM264.5 239.5q25.5 -25.5 70 -25.5t71.5 25.5t27 68.5t-26.5 68.5t-71.5 25.5t-70.5 -25.5t-25.5 -68.5t25.5 -68.5zM1043 491h148q61 56 152.5 56t143.5 -66v119h-897v-115q47 57 134 57q105 0 163 -81
q64 30 156 30zM1487 303v1q0 49 -28.5 78t-78 29t-79.5 -30t-30 -78t30 -78t79.5 -30t78 29.5t28.5 78.5z" />
    <glyph glyph-name="uF023D" unicode="&#xf023d;" horiz-adv-x="1495" 
d="M1231 740h259v-140h-95v-600h-164v164q-23 -37 -71 -61.5t-114 -24.5q-128 0 -202.5 73t-82.5 201q-22 50 -83 50q-41 0 -64.5 -28t-23.5 -75v-299h-157v138q-48 -64 -146 -64t-155.5 68t-57.5 166t57.5 166t154.5 68t147 -64v122h-453v140h899q34 10 73 10
q88 0 149.5 -52t61.5 -149q0 -203 -225 -202q-6 -54 28.5 -91.5t110.5 -37.5q154 0 154 221v301zM264.5 239.5q25.5 -25.5 70 -25.5t71.5 25.5t27 68.5t-26.5 68.5t-71.5 25.5t-70.5 -25.5t-25.5 -68.5t25.5 -68.5zM590 600v-115q47 57 138.5 57t147.5 -67q68 0 99 16.5
t31 50.5q0 69 -66 69q-25 0 -41 -11h-309z" />
    <glyph glyph-name="uF023E" unicode="&#xf023e;" horiz-adv-x="1324" 
d="M1232 387h-177q-55 0 -88.5 -27.5t-33.5 -74t26 -70t68 -23.5t64 19.5t22 52.5h149v-292h-163v116q-33 -33 -104 -33q-96 0 -161 59.5t-65 176.5q0 16 1 23q-2 39 -25 63.5t-65 24.5t-65.5 -28t-23.5 -75v-299h-157v138q-48 -64 -146 -64t-155.5 68t-57.5 166t57.5 166
t154.5 68t147 -64v122h-453v140h1363v-140h-112v-213zM265.5 239.5q25.5 -25.5 70 -25.5t71.5 25.5t27 68.5t-26.5 68.5t-71.5 25.5t-70.5 -25.5t-25.5 -68.5t25.5 -68.5zM591 600v-112q46 54 131.5 54t130.5 -65q73 55 192 55h23v68h-477z" />
    <glyph glyph-name="uF023F" unicode="&#xf023f;" horiz-adv-x="1549" 
d="M1569 740v-140h-95v-600h-164v351h-140q35 -39 35 -104q0 -88 -57 -137.5t-155.5 -49.5t-162 59.5t-63.5 159.5q0 12 2 32q-1 41 -24 66t-65.5 25t-66 -28t-23.5 -75v-299h-157v138q-48 -64 -146 -64t-155.5 68t-57.5 166t57.5 166t154.5 68t147 -64v122h-453v140h1589z
M264.5 239.5q25.5 -25.5 70 -25.5t71.5 25.5t27 68.5t-26.5 68.5t-71.5 25.5t-70.5 -25.5t-25.5 -68.5t25.5 -68.5zM994 200q35 0 54.5 21t19.5 56q0 72 -74 72q-36 0 -57.5 -18.5t-21.5 -53t22 -56t57 -21.5zM1310 489v111h-720v-124q43 66 128 66q102 0 153 -84
q59 31 142 31h297z" />
    <glyph glyph-name="uF0240" unicode="&#xf0240;" horiz-adv-x="1365" 
d="M1385 740v-140h-95v-600h-165v228q-49 -62 -142 -62t-149.5 50.5t-73.5 134.5q-24 48 -82 48q-41 0 -64.5 -28t-23.5 -75v-296h-157v138q-48 -64 -146 -64t-155.5 68t-57.5 166t57.5 166t154.5 68t147 -64v122h-453v140h1405zM264.5 239.5q25.5 -25.5 70 -25.5t71.5 25.5
t27 68.5t-26.5 68.5t-71.5 25.5t-70.5 -25.5t-25.5 -68.5t25.5 -68.5zM590 600v-111q40 49 109 49q26 0 53 -10v72h-162zM917 600v-178q0 -117 106 -117q49 0 75.5 31t26.5 87v177h-208z" />
    <glyph glyph-name="uF0241" unicode="&#xf0241;" horiz-adv-x="1365" 
d="M1385 740v-140h-95v-600h-165v237l-190 -265h-170q104 129 166 208q-70 11 -113.5 55.5t-58.5 115.5q-22 48 -81 48q-41 0 -64.5 -28t-23.5 -75v-296h-157v138q-48 -64 -146 -64t-155.5 68t-57.5 166t57.5 166t154.5 68t147 -64v122h-453v140h1405zM264.5 239.5
q25.5 -25.5 70 -25.5t71.5 25.5t27 68.5t-26.5 68.5t-71.5 25.5t-70.5 -25.5t-25.5 -68.5t25.5 -68.5zM590 600v-111q40 49 109 49q26 0 53 -10v72h-162zM917 600v-178q0 -117 106 -117q49 0 75.5 31t26.5 87v177h-208z" />
    <glyph glyph-name="uF0242" unicode="&#xf0242;" horiz-adv-x="1640" 
d="M1660 600h-397v-124q47 55 139 55t148 -63.5t56 -160.5q0 -118 -72 -180.5t-193 -47.5l-1 134q109 -5 109 89q0 40 -24.5 64t-67 24t-68.5 -29t-26 -74v-287h-165v244q-45 -58 -132 -58t-138.5 45.5t-71.5 123.5q-23 40 -71 40t-71.5 -28t-23.5 -75v-292h-157v138
q-48 -64 -146 -64t-155.5 68t-57.5 166t57.5 166t154.5 68t147 -64v122h-453v140h1680v-140zM264.5 239.5q25.5 -25.5 70 -25.5t71.5 25.5t27 68.5t-26.5 68.5t-71.5 25.5t-70.5 -25.5t-25.5 -68.5t25.5 -68.5zM590 600v-115q40 49 109 49q21 0 46 -7v73h-155zM910 600v-154
q0 -59 20.5 -90t75.5 -31q92 0 92 128v147h-188z" />
    <glyph glyph-name="uF0243" unicode="&#xf0243;" horiz-adv-x="1642" 
d="M1662 600h-397v-124q47 55 139 55t148 -63.5t56 -160.5q0 -118 -72 -180.5t-193 -47.5l-1 134q109 -5 109 89q0 40 -24.5 64t-67 24t-68.5 -29t-26 -74v-287h-165v244q-45 -58 -132 -58t-138 44.5t-71 120.5q-24 44 -80 44q-41 0 -64.5 -28t-23.5 -75v-292h-157v138
q-48 -64 -146 -64t-155.5 68t-57.5 166t57.5 166t154.5 68t147 -64v122h-433v140h1661v-140zM265.5 239.5q25.5 -25.5 70 -25.5t71.5 25.5t27 68.5t-26.5 68.5t-71.5 25.5t-70.5 -25.5t-25.5 -68.5t25.5 -68.5zM591 600v-115q40 49 109 49q25 0 47 -8v74h-156zM912 600v-154
q0 -59 20.5 -90t75.5 -31q92 0 92 128v147h-188zM233.5 -47.5q27.5 27.5 67 27.5t67 -27.5t27.5 -67t-27.5 -67t-67 -27.5t-67 27.5t-27.5 67t27.5 67z" />
    <glyph glyph-name="uF0244" unicode="&#xf0244;" horiz-adv-x="1642" 
d="M1662 600h-397v-124q47 55 139 55t148 -63.5t56 -160.5q0 -118 -72 -180.5t-193 -47.5l-1 134q109 -5 109 89q0 40 -24.5 64t-67 24t-68.5 -29t-26 -74v-287h-165v244q-45 -58 -132 -58t-138 44.5t-71 120.5q-24 44 -80 44q-41 0 -64.5 -28t-23.5 -75v-292h-157v138
q-48 -64 -146 -64t-155.5 68t-57.5 166t57.5 166t154.5 68t147 -64v122h-433v140h1661v-140zM265.5 239.5q25.5 -25.5 70 -25.5t71.5 25.5t27 68.5t-26.5 68.5t-71.5 25.5t-70.5 -25.5t-25.5 -68.5t25.5 -68.5zM591 600v-115q40 49 109 49q25 0 47 -8v74h-156zM912 600v-154
q0 -59 20.5 -90t75.5 -31q92 0 92 128v147h-188zM876.5 44.5q27.5 27.5 67 27.5t67 -27.5t27.5 -67t-27.5 -67t-67 -27.5t-67 27.5t-27.5 67t27.5 67zM233.5 -47.5q27.5 27.5 67 27.5t67 -27.5t27.5 -67t-27.5 -67t-67 -27.5t-67 27.5t-27.5 67t27.5 67z" />
    <glyph glyph-name="uF0245" unicode="&#xf0245;" horiz-adv-x="1400" 
d="M1420 740v-140h-95v-600h-157v115q-52 -61 -157 -61t-174 70t-69 179v17q-3 37 -26 59.5t-64 22.5t-64.5 -28t-23.5 -75v-299h-157v138q-48 -64 -146 -64t-155.5 68t-57.5 166t57.5 166t154.5 68t147 -64v122h-453v140h1440zM1177 303q0 57 -37.5 92.5t-87 35.5
t-83.5 -20l205 -137q3 14 3 29zM264.5 239.5q25.5 -25.5 70 -25.5t71.5 25.5t27 68.5t-26.5 68.5t-71.5 25.5t-70.5 -25.5t-25.5 -68.5t25.5 -68.5zM590 600v-120q42 62 123.5 62t128.5 -55q68 65 170.5 65t155.5 -62v110h-578zM910 303q0 -59 38 -93.5t91 -34.5t85 23
l-209 140q-5 -18 -5 -35zM239.5 -54.5q27.5 27.5 67 27.5t67 -27.5t27.5 -67t-27.5 -67t-67 -27.5t-67 27.5t-27.5 67t27.5 67z" />
    <glyph glyph-name="uF0246" unicode="&#xf0246;" horiz-adv-x="1515" 
d="M1535 740v-140h-95v-600h-164v332h-125v-40q0 -111 -54.5 -172.5t-156 -61.5t-166 57.5t-64.5 150.5q0 69 32 115q-24 21 -64.5 21t-64 -28t-23.5 -75v-299h-157v138q-48 -64 -146 -64t-155.5 68t-57.5 166t57.5 166t154.5 68t147 -64v122h-453v140h1555zM264.5 239.5
q25.5 -25.5 70 -25.5t71.5 25.5t27 68.5t-26.5 68.5t-71.5 25.5t-70.5 -25.5t-25.5 -68.5t25.5 -68.5zM590 600v-115q47 57 134 57q107 0 163 -81q35 5 66 5h44v134h-407zM997 286v46h-42q-41 0 -67 -17.5t-26 -50.5t19.5 -50.5t50.5 -17.5q65 0 65 90zM1276 466v134h-125
v-134h125z" />
    <glyph glyph-name="uF0247" unicode="&#xf0247;" horiz-adv-x="1515" 
d="M1535 740v-140h-95v-600h-164v332h-125v-40q0 -111 -54.5 -172.5t-156 -61.5t-166 57.5t-64.5 150.5q0 69 32 115q-24 21 -64.5 21t-64 -28t-23.5 -75v-299h-157v138q-48 -64 -146 -64t-155.5 68t-57.5 166t57.5 166t154.5 68t147 -64v122h-453v140h1555zM264.5 239.5
q25.5 -25.5 70 -25.5t71.5 25.5t27 68.5t-26.5 68.5t-71.5 25.5t-70.5 -25.5t-25.5 -68.5t25.5 -68.5zM590 600v-115q47 57 134 57q107 0 163 -81q35 5 66 5h44v134h-407zM997 286v46h-42q-41 0 -67 -17.5t-26 -50.5t19.5 -50.5t50.5 -17.5q65 0 65 90zM1276 466v134h-125
v-134h125zM246.5 -52.5q27.5 27.5 67 27.5t67 -27.5t27.5 -67t-27.5 -67t-67 -27.5t-67 27.5t-27.5 67t27.5 67z" />
    <glyph glyph-name="uF0248" unicode="&#xf0248;" horiz-adv-x="1460" 
d="M1479 740v-140h-95v-600h-164v151q-58 -73 -179 -73t-191.5 70.5t-84.5 191.5q-7 27 -29 43.5t-60 16.5t-62 -28.5t-24 -75.5v-296h-157v138q-48 -64 -146 -64t-155.5 68t-57.5 166t57.5 166t154.5 68t147 -64v122h-453v140h1499zM264.5 239.5q25.5 -25.5 70 -25.5
t71.5 25.5t27 68.5t-26.5 68.5t-71.5 25.5t-70.5 -25.5t-25.5 -68.5t25.5 -68.5zM590 600v-117q45 56 136 56t148 -80q27 16 35 45t8 80v16h-327zM1078 600v-23q0 -113 -29.5 -164t-116.5 -62q0 -60 37 -96.5t106 -36.5t107 41.5t38 111.5v229h-142z" />
    <glyph glyph-name="uF0249" unicode="&#xf0249;" horiz-adv-x="1614" 
d="M1634 600h-240v-89q82 -14 132 -76t50 -166q0 -127 -81.5 -196.5t-225.5 -59.5v142q142 -9 142 115q0 47 -21.5 74t-62.5 27q-102 0 -82 -165h-150q18 165 -80 165q-42 0 -63 -27t-21 -74q0 -124 142 -115v-142q-144 -10 -225.5 59.5t-81.5 196.5q0 15 2 39q0 42 -23 68
t-66 26t-66.5 -28t-23.5 -75v-299h-157v138q-48 -64 -146 -64t-155.5 68t-57.5 166t57.5 166t154.5 68t147 -64v122h-453v140h1655v-140zM263.5 239.5q25.5 -25.5 70 -25.5t71.5 25.5t27 68.5t-26.5 68.5t-71.5 25.5t-70.5 -25.5t-25.5 -68.5t25.5 -68.5zM1236 600h-647
v-115q41 57 130.5 57t136.5 -68q56 41 137 41q129 0 179 -100q22 47 64 72v113z" />
    <glyph glyph-name="uF024A" unicode="&#xf024a;" horiz-adv-x="1377" 
d="M1397 740v-140h-95v-600h-157v124q-53 -65 -150 -65t-161.5 71t-64.5 173v5q0 42 -23 68t-66 26t-66.5 -28t-23.5 -75v-299h-157v138q-48 -64 -146 -64t-155.5 68t-57.5 166t57.5 166t154.5 68t147 -64v122h-453v140h1417zM264.5 239.5q25.5 -25.5 70 -25.5t71.5 25.5
t27 68.5t-26.5 68.5t-71.5 25.5t-70.5 -25.5t-25.5 -68.5t25.5 -68.5zM590 600v-120q42 62 124 62t130 -56q63 61 156 61t145 -66v119h-555zM1145 303v1q0 49 -28.5 78t-78 29t-79.5 -30t-30 -78t30 -78t79.5 -30t78 29.5t28.5 78.5z" />
    <glyph glyph-name="uF024B" unicode="&#xf024b;" horiz-adv-x="1841" 
d="M1861 740v-140h-95v-600h-164v151q-58 -73 -174 -73t-186 61q-71 -80 -195.5 -80t-201 64.5t-76.5 179.5v5q0 42 -23 68t-66 26t-66.5 -28t-23.5 -75v-299h-157v138q-48 -64 -146 -64t-155.5 68t-57.5 166t57.5 166t154.5 68t147 -64v122h-453v140h1881zM264.5 239.5
q25.5 -25.5 70 -25.5t71.5 25.5t27 68.5t-26.5 68.5t-71.5 25.5t-70.5 -25.5t-25.5 -68.5t25.5 -68.5zM590 600v-115q47 57 131 57t138 -49q74 54 181 54q140 0 211 -90q31 16 39.5 45t8.5 82v16h-709zM1039 195q50 0 80.5 30t30.5 78t-30.5 78t-80.5 30t-79 -30t-29 -78
t29 -78t79 -30zM1460 600v-23q0 -113 -29.5 -164t-116.5 -62q0 -60 37 -96.5t106 -36.5t107 41.5t38 111.5v229h-142z" />
    <glyph glyph-name="uF024C" unicode="&#xf024c;" horiz-adv-x="1556" 
d="M1314 740h260v-140h-95v-600h-165v740zM1242 532q0 -244 -307 -244v-74q0 -78 69.5 -78t66.5 93h160q2 -233 -224 -233q-110 0 -174 60t-64 166v75q0 42 -23 68t-66.5 26t-66.5 -24.5t-23 -70.5v-296h-157v138q-48 -64 -146 -64t-155.5 68t-57.5 166t57.5 166t154.5 68
t147 -64v122h-453v140h961q29 7 69 7q106 0 169 -56.5t63 -158.5zM264.5 239.5q25.5 -25.5 70 -25.5t71.5 25.5t27 68.5t-26.5 68.5t-71.5 25.5t-70.5 -25.5t-25.5 -68.5t25.5 -68.5zM590 600v-123q46 54 134 54q128 0 180 -111q80 3 126.5 26.5t46.5 84.5q0 35 -16.5 56
t-49.5 21q-56 0 -62 -53h-167q1 22 8 45h-200z" />
    <glyph glyph-name="uF024D" unicode="&#xf024d;" horiz-adv-x="1405" 
d="M1425 740v-140h-95v-600h-164v332h-125v-40q0 -111 -54.5 -172.5t-156 -61.5t-166 57.5t-64.5 150.5q0 39 11 72h-279q-32 -17 -48.5 -28t-30.5 -30.5t-14 -47t22 -46t60.5 -18.5t58 24.5t19.5 59.5h139v-308h-154v133q-34 -45 -117 -45t-138.5 50t-55.5 132
q0 104 134 176q-49 19 -78 60.5t-29 102.5q0 84 64.5 140.5t157 56.5t152.5 -47t60 -131q0 -32 -12.5 -63t-31.5 -48h286q35 5 67 5h44v134h-275v140h813zM396 540q0 32 -19.5 51t-54 19t-55 -19.5t-20.5 -54t28 -54t73 -21.5q48 25 48 79zM887 286v46h-42q-41 0 -67 -17.5
t-26 -50.5t19.5 -50.5t50.5 -17.5q65 0 65 90zM1166 466v134h-125v-134h125z" />
    <glyph glyph-name="uF024E" unicode="&#xf024e;" horiz-adv-x="1820" 
d="M1840 740v-140h-95v-600h-164v155q-56 -77 -176.5 -77t-192 66.5t-84.5 187.5h-87v-40q0 -111 -54.5 -172.5t-156 -61.5t-166 57.5t-64.5 150.5q0 39 11 72h-279q-32 -17 -48.5 -28t-30.5 -30.5t-14 -47t22 -46t60.5 -18.5t58 24.5t19.5 59.5h139v-308h-154v133
q-34 -45 -117 -45t-138.5 50t-55.5 132q0 104 134 176q-49 19 -78 60.5t-29 102.5q0 84 64.5 140.5t157 56.5t152.5 -47t60 -131q0 -32 -12.5 -63t-31.5 -48h286q35 5 67 5h44v134h-275v140h1228zM396 540q0 32 -19.5 51t-54 19t-55 -19.5t-20.5 -54t28 -54t73 -21.5
q48 25 48 79zM887 286v46h-42q-41 0 -67 -17.5t-26 -50.5t19.5 -50.5t50.5 -17.5q65 0 65 90zM1041 466h124t69 4.5t26.5 8t11 18.5t6.5 28v75h-237v-134zM1439 600v-38q0 -110 -30 -155.5t-114 -55.5q-3 -62 33 -97.5t107 -35.5t108.5 43.5t37.5 119.5v219h-142z" />
    <glyph glyph-name="uF024F" unicode="&#xf024f;" horiz-adv-x="1259" 
d="M586 740h693v-140h-95v-608h-164v157q-56 -79 -178 -79t-193.5 71t-82.5 197h-254q-32 -17 -48.5 -28t-30.5 -30.5t-14 -47t22 -46t60.5 -18.5t58 24.5t19.5 59.5h139v-308h-154v133q-34 -45 -117 -45t-138.5 50t-55.5 132q0 104 134 176q-49 19 -78 60.5t-29 102.5
q0 84 64.5 140.5t157 56.5t152.5 -47t60 -131q0 -32 -12.5 -63t-31.5 -48h100v1q39 0 61.5 0.5t41 6.5t26 11t12.5 22q6 19 6 74v24h-131v140zM376 540q0 32 -19.5 51t-54 19t-55 -19.5t-20.5 -54t28 -54t73 -21.5q48 25 48 79zM878 600v-31q0 -112 -30.5 -162.5
t-113.5 -59.5q-3 -62 33 -99.5t106 -37.5t108.5 45.5t38.5 117.5v227h-142z" />
    <glyph glyph-name="uF0250" unicode="&#xf0250;" horiz-adv-x="1220" 
d="M605 740h635v-140h-95v-600h-157v124q-53 -65 -150 -65t-161.5 71t-64.5 173q0 13 2 35h-282q-32 -17 -48.5 -28t-30.5 -30.5t-14 -47t22 -46t60.5 -18.5t58 24.5t19.5 59.5h139v-308h-154v133q-34 -45 -117 -45t-138.5 50t-55.5 132q0 104 134 176q-49 19 -78 60.5
t-29 102.5q0 84 64.5 140.5t157 56.5t152.5 -47t60 -131q0 -32 -12.5 -63t-31.5 -48h174q67 86 169.5 86t154.5 -66v119h-383v140zM396 540q0 32 -19.5 51t-54 19t-55 -19.5t-20.5 -54t28 -54t73 -21.5q48 25 48 79zM988 303v1q0 49 -28.5 78t-78 29t-79.5 -30t-30 -78
t30 -78t79.5 -30t78 29.5t28.5 78.5z" />
    <glyph glyph-name="uF0251" unicode="&#xf0251;" horiz-adv-x="1526" 
d="M1546 740v-140h-95v-600h-164v289h-355v-87q0 -66 58 -66q34 0 45.5 22t12.5 60h160q-4 -112 -51 -167t-159 -55t-172 57t-60 157v126q-15 66 -88 66q-41 0 -64.5 -28t-23.5 -75v-299h-157v138q-48 -64 -146 -64t-155.5 68t-57.5 166t57.5 166t154.5 68t147 -64v122h-453
v140h1566zM264.5 239.5q25.5 -25.5 70 -25.5t71.5 25.5t27 68.5t-26.5 68.5t-71.5 25.5t-70.5 -25.5t-25.5 -68.5t25.5 -68.5zM590 600v-115q47 57 126 57q149 0 197 -132q37 12 49 44t12 94v52h-384zM1287 425v175h-148v-62q0 -63 -14 -113h162z" />
    <glyph glyph-name="uF0252" unicode="&#xf0252;" horiz-adv-x="1859" 
d="M1670 404h-82q-75 0 -120 -30.5t-45 -90t35 -92t93 -32.5t89.5 33t31.5 89h156q0 -125 -74.5 -194t-203 -69t-208.5 70t-80 191v10h-327v-87q0 -66 58 -66q34 0 45.5 22t12.5 60h160q-4 -112 -51 -167t-159 -55t-172 57t-60 157v98q0 42 -23 68t-66 26t-66.5 -28
t-23.5 -75v-299h-157v138q-48 -64 -146 -64t-155.5 68t-57.5 166t57.5 166t154.5 68t147 -64v122h-453v140h1899v-140h-209v-196zM264.5 239.5q25.5 -25.5 70 -25.5t71.5 25.5t27 68.5t-26.5 68.5t-71.5 25.5t-70.5 -25.5t-25.5 -68.5t25.5 -68.5zM590 600v-115
q47 57 126 57t127.5 -36t69.5 -97q39 12 51.5 44t12.5 95v52h-387zM1506 600h-364v-62q0 -63 -14 -113h173q65 101 205 117v58z" />
    <glyph glyph-name="uF0253" unicode="&#xf0253;" horiz-adv-x="1788" 
d="M1695 411h-155q-88 0 -88 -38q0 -24 21 -30.5t68 -6.5q217 0 217 -174q0 -84 -62 -133t-170 -49t-178 52.5t-74 146.5h162q3 -36 27 -54t62 -18q71 0 71 52q0 29 -22 40t-69 11q-150 0 -196 79h-374v-87q0 -66 58 -66q34 0 45.5 22t12.5 60h160q-4 -112 -51 -167
t-159 -55t-172 57t-60 157v98q0 42 -23 68t-66 26t-66.5 -28t-23.5 -75v-299h-157v138q-48 -64 -146 -64t-155.5 68t-57.5 166t57.5 166t154.5 68t147 -64v122h-453v140h1828v-140h-113v-189zM264.5 239.5q25.5 -25.5 70 -25.5t71.5 25.5t27 68.5t-26.5 68.5t-71.5 25.5
t-70.5 -25.5t-25.5 -68.5t25.5 -68.5zM590 600v-115q47 57 126 57t127.5 -36t69.5 -97q39 12 51.5 44t12.5 95v52h-387zM1491 541h39v59h-388v-62q0 -63 -14 -113h163q15 58 70 87t130 29z" />
    <glyph glyph-name="uF0254" unicode="&#xf0254;" horiz-adv-x="1911" 
d="M1931 740v-140h-95v-600h-164v351h-115q-57 0 -90 -28t-33 -84q0 -110 129 -110v-129h-32q-121 0 -191.5 58t-70.5 181q0 26 3 50h-337v-87q0 -66 58 -66q34 0 45.5 22t12.5 60h160q-4 -112 -51 -167t-159 -55t-172 57t-60 157v98q0 42 -23 68t-66 26t-66.5 -28
t-23.5 -75v-299h-157v138q-48 -64 -146 -64t-155.5 68t-57.5 166t57.5 166t154.5 68t147 -64v122h-453v140h1951zM264.5 239.5q25.5 -25.5 70 -25.5t71.5 25.5t27 68.5t-26.5 68.5t-71.5 25.5t-70.5 -25.5t-25.5 -68.5t25.5 -68.5zM590 600v-115q47 57 126 57t127.5 -36
t69.5 -97q39 12 51.5 44t12.5 95v52h-387zM1672 491v109h-530v-62q0 -63 -14 -113h213q74 66 213 66h118z" />
    <glyph glyph-name="uF0255" unicode="&#xf0255;" horiz-adv-x="1912" 
d="M1931 740v-140h-95v-600h-165v237l-190 -265h-170q104 129 166 208q-104 16 -151 109h-391v-87q0 -66 58 -66q34 0 45.5 22t12.5 60h160q-4 -112 -51 -167t-159 -55t-172 57t-60 157v98q0 42 -23 68t-66 26t-66.5 -28t-23.5 -75v-299h-157v138q-48 -64 -146 -64
t-155.5 68t-57.5 166t57.5 166t154.5 68t147 -64v122h-453v140h1951zM264.5 239.5q25.5 -25.5 70 -25.5t71.5 25.5t27 68.5t-26.5 68.5t-71.5 25.5t-70.5 -25.5t-25.5 -68.5t25.5 -68.5zM590 600v-115q47 57 126 57t127.5 -36t69.5 -97q39 12 51.5 44t12.5 95v52h-387z
M1298 425v175h-156v-62q0 -63 -14 -113h170zM1463 600v-178q0 -117 106 -117q49 0 75.5 31t26.5 87v177h-208z" />
    <glyph glyph-name="uF0256" unicode="&#xf0256;" horiz-adv-x="2493" 
d="M2513 600h-240v-89q82 -14 132 -76t50 -166q0 -127 -81.5 -196.5t-225.5 -59.5v142q142 -9 142 115q0 47 -21.5 74t-62.5 27q-102 0 -82 -165h-150q18 165 -80 165q-42 0 -63 -27t-21 -74q0 -124 142 -115v-142q-120 -9 -198 39.5t-101 141.5q-47 -28 -109 -28
q-152 0 -210 123h-399v-87q0 -66 58 -66q34 0 45.5 22t12.5 60h160q-4 -112 -51 -167t-159 -55t-172 57t-60 157v98q0 42 -23 68t-66 26t-66.5 -28t-23.5 -75v-299h-157v138q-48 -64 -146 -64t-155.5 68t-57.5 166t57.5 166t154.5 68t147 -64v122h-453v140h2533v-140z
M264.5 239.5q25.5 -25.5 70 -25.5t71.5 25.5t27 68.5t-26.5 68.5t-71.5 25.5t-70.5 -25.5t-25.5 -68.5t25.5 -68.5zM590 600v-115q47 57 126 57t127.5 -36t69.5 -97q39 12 51.5 44t12.5 95v52h-387zM1306 425v175h-164v-62q0 -63 -14 -113h178zM2115 600h-644v-168
q0 -127 100 -127q63 0 86 54q22 77 79.5 116.5t135.5 39.5q129 0 179 -100q22 47 64 72v113z" />
    <glyph glyph-name="uF0257" unicode="&#xf0257;" horiz-adv-x="1617" 
d="M1637 740v-140h-95v-600h-157v167q-41 -51 -121 -51h-9q-31 -57 -95.5 -88.5t-152 -31.5t-153 36t-96.5 105q-50 -21 -94.5 -21t-65.5 4q-31 -59 -95.5 -91.5t-149.5 -32.5q-131 0 -206.5 73t-75.5 207v131h29q89 3 116 38t27 146v9h-263v140h1657zM237 258
q0 -122 114 -122q86 0 110 58q-42 53 -42 129q0 96 64 151t165 55q70 0 123 -27t80 -77q30 16 40.5 53t10.5 113v9h-494v-8q0 -157 -33 -219t-138 -76v-39zM648 243q38 0 60 21t22 58.5t-22 59t-60 21.5t-60 -21.5t-22 -59t22 -58.5t60 -21zM896 258q0 -122 114 -122
q81 0 108 53q-40 55 -40 139t52 142.5t133 58.5t122 -51v122h-318v-8q0 -157 -33 -219t-138 -76v-39zM1247 264q22 -21 58.5 -21t57.5 21.5t21 59t-20 58.5t-57.5 21t-59.5 -21.5t-22 -59t22 -58.5z" />
    <glyph glyph-name="uF0258" unicode="&#xf0258;" horiz-adv-x="1365" 
d="M1385 740v-140h-95v-600h-164v351h-115q-57 0 -90 -28t-33 -84q0 -110 129 -110v-129h-32q-195 0 -246 138q-47 -22 -101 -22q-20 0 -40 3q-31 -58 -96 -90.5t-149 -32.5q-131 0 -206.5 73t-75.5 207v131h27q91 0 118 35.5t27 148.5v9h-263v140h1405zM648 243q38 0 60 21
t22 58.5t-22 59t-60 21.5t-60 -21.5t-22 -59t22 -58.5t60 -21zM1126 491v109h-718v-8q0 -157 -33 -219t-138 -76v-39q0 -122 114 -122q85 0 110 58q-42 53 -42 129q0 95 61.5 150.5t157.5 55.5q119 0 179 -87q71 49 191 49h118z" />
    <glyph glyph-name="uF0259" unicode="&#xf0259;" horiz-adv-x="1365" 
d="M1385 740v-140h-95v-600h-164v351h-115q-57 0 -90 -28t-33 -84q0 -110 129 -110v-129h-32q-195 0 -246 138q-47 -22 -101 -22q-20 0 -40 3q-31 -58 -96 -90.5t-149 -32.5q-131 0 -206.5 73t-75.5 207v131h27q91 0 118 35.5t27 148.5v9h-263v140h1405zM648 243q38 0 60 21
t22 58.5t-22 59t-60 21.5t-60 -21.5t-22 -59t22 -58.5t60 -21zM1126 491v109h-718v-8q0 -157 -33 -219t-138 -76v-39q0 -122 114 -122q85 0 110 58q-42 53 -42 129q0 95 61.5 150.5t157.5 55.5q119 0 179 -87q71 49 191 49h118zM285.5 -85.5q27.5 27.5 67 27.5t67 -27.5
t27.5 -67t-27.5 -67t-67 -27.5t-67 27.5t-27.5 67t27.5 67z" />
    <glyph glyph-name="uF025A" unicode="&#xf025a;" horiz-adv-x="1510" 
d="M1530 740v-140h-95v-600h-164v351h-140q35 -39 35 -104q0 -88 -57 -137.5t-153 -49.5q-130 0 -192 92q-55 -36 -126 -36q-20 0 -40 3q-31 -58 -96 -90.5t-149 -32.5q-131 0 -206.5 73t-75.5 207v131h22q94 2 122 36.5t28 147.5v9h-263v140h1550zM648 243q38 0 60 21
t22 58.5t-22 59t-60 21.5t-60 -21.5t-22 -59t22 -58.5t60 -21zM955 200q35 0 54.5 21t19.5 56q0 72 -74 72q-36 0 -57.5 -18.5t-21.5 -53t22 -56t57 -21.5zM1271 489v111h-863v-8q0 -157 -33 -219t-138 -76v-39q0 -122 114 -122q85 0 110 58q-42 53 -42 129q0 95 61.5 150.5
t157.5 55.5q114 0 176 -81q64 41 160 41h297z" />
    <glyph glyph-name="uF025B" unicode="&#xf025b;" horiz-adv-x="1531" 
d="M1551 740v-140h-95v-600h-164v332h-125v-40q0 -111 -54.5 -172.5t-160.5 -61.5q-128 0 -191 91q-54 -32 -123 -32q-20 0 -40 3q-31 -59 -95.5 -91.5t-149.5 -32.5q-131 0 -206.5 73t-75.5 207v131h29q90 3 116.5 37.5t26.5 146.5v9h-263v140h1571zM237 258
q0 -122 114 -122q85 0 110 57q-42 53 -42 130q0 95 61.5 150.5t157.5 55.5q126 0 185 -93q57 30 146 30h44v134h-605v-8q0 -157 -33 -219t-138 -76v-39zM648 243q38 0 60 21.5t22 58.5t-22 58.5t-60 21.5t-60 -21.5t-22 -58.5t22 -58.5t60 -21.5zM1013 286v46h-42
q-41 0 -67 -17.5t-26 -50.5t19.5 -50.5t50.5 -17.5q65 0 65 90zM1292 466v134h-125v-134h125z" />
    <glyph glyph-name="uF025C" unicode="&#xf025c;" horiz-adv-x="1531" 
d="M1551 740v-140h-95v-600h-164v332h-125v-40q0 -111 -54.5 -172.5t-160.5 -61.5q-128 0 -191 91q-54 -32 -123 -32q-20 0 -40 3q-31 -59 -95.5 -91.5t-149.5 -32.5q-131 0 -206.5 73t-75.5 207v131h29q90 3 116.5 37.5t26.5 146.5v9h-263v140h1571zM237 258
q0 -122 114 -122q85 0 110 57q-42 53 -42 130q0 95 61.5 150.5t157.5 55.5q126 0 185 -93q57 30 146 30h44v134h-605v-8q0 -157 -33 -219t-138 -76v-39zM648 243q38 0 60 21.5t22 58.5t-22 58.5t-60 21.5t-60 -21.5t-22 -58.5t22 -58.5t60 -21.5zM1013 286v46h-42
q-41 0 -67 -17.5t-26 -50.5t19.5 -50.5t50.5 -17.5q65 0 65 90zM1292 466v134h-125v-134h125zM287.5 -85.5q27.5 27.5 67 27.5t67 -27.5t27.5 -67t-27.5 -67t-67 -27.5t-67 27.5t-27.5 67t27.5 67z" />
    <glyph glyph-name="uF025D" unicode="&#xf025d;" horiz-adv-x="1424" 
d="M1444 740v-140h-95v-600h-164v151q-58 -73 -177 -73q-140 0 -214 93q-60 -55 -156 -55q-20 0 -40 3q-31 -58 -96 -90.5t-149 -32.5q-131 0 -206.5 73t-75.5 207v131h13q70 1 102 15.5t44.5 51.5t12.5 117v9h-263v140h1464zM648 243q38 0 60 21t22 58.5t-22 59t-60 21.5
t-60 -21.5t-22 -59t22 -58.5t60 -21zM237 258q0 -122 114 -122q85 0 110 58q-42 53 -42 129q0 95 61.5 150.5t157.5 55.5q116 0 178 -80q44 14 56 51q10 28 10 84v16h-474v-8q0 -157 -33 -219t-138 -76v-39zM1043 600v-23q0 -113 -29.5 -164t-116.5 -62q0 -60 37 -96.5
t106 -36.5t107 41.5t38 111.5v229h-142z" />
    <glyph glyph-name="uF025E" unicode="&#xf025e;" horiz-adv-x="1424" 
d="M1444 740v-140h-95v-600h-164v151q-58 -73 -177 -73q-140 0 -214 93q-60 -55 -156 -55q-20 0 -40 3q-31 -58 -96 -90.5t-149 -32.5q-131 0 -206.5 73t-75.5 207v131h13q70 1 102 15.5t44.5 51.5t12.5 117v9h-263v140h1464zM648 243q38 0 60 21t22 58.5t-22 59t-60 21.5
t-60 -21.5t-22 -59t22 -58.5t60 -21zM237 258q0 -122 114 -122q85 0 110 58q-42 53 -42 129q0 95 61.5 150.5t157.5 55.5q116 0 178 -80q44 14 56 51q10 28 10 84v16h-474v-8q0 -157 -33 -219t-138 -76v-39zM1043 600v-23q0 -113 -29.5 -164t-116.5 -62q0 -60 37 -96.5
t106 -36.5t107 41.5t38 111.5v229h-142zM288.5 -85.5q27.5 27.5 67 27.5t67 -27.5t27.5 -67t-27.5 -67t-67 -27.5t-67 27.5t-27.5 67t27.5 67z" />
    <glyph glyph-name="uF025F" unicode="&#xf025f;" horiz-adv-x="1338" 
d="M1358 740v-140h-95v-600h-157v124q-53 -65 -151 -65q-113 0 -180 95q-51 -38 -132 -38q-25 0 -45 4q-31 -59 -95.5 -91.5t-149.5 -32.5q-131 0 -206.5 73t-75.5 207v131h23q94 0 121.5 35t27.5 149v9h-263v140h1378zM237 258q0 -122 114 -122q85 0 111 59q-43 53 -43 128
q0 95 61.5 150.5t156 55.5t153.5 -59q64 77 164 77t152 -66v119h-698v-8q0 -157 -33 -219t-138 -76v-39zM648 243q38 0 60 21t22 58.5t-22 59t-60 21.5t-60 -21.5t-22 -59t22 -58.5t60 -21zM1106 303v1q0 49 -28.5 78t-78 29t-79.5 -30t-30 -78t30 -78t79.5 -30t78 29.5
t28.5 78.5z" />
    <glyph glyph-name="uF0260" unicode="&#xf0260;" horiz-adv-x="1338" 
d="M1358 740v-140h-95v-600h-157v124q-53 -65 -151 -65q-113 0 -180 95q-51 -38 -132 -38q-25 0 -45 4q-31 -59 -95.5 -91.5t-149.5 -32.5q-131 0 -206.5 73t-75.5 207v131h23q94 0 121.5 35t27.5 149v9h-263v140h1378zM237 258q0 -122 114 -122q85 0 111 59q-43 53 -43 128
q0 95 61.5 150.5t156 55.5t153.5 -59q64 77 164 77t152 -66v119h-698v-8q0 -157 -33 -219t-138 -76v-39zM648 243q38 0 60 21t22 58.5t-22 59t-60 21.5t-60 -21.5t-22 -59t22 -58.5t60 -21zM1106 303v1q0 49 -28.5 78t-78 29t-79.5 -30t-30 -78t30 -78t79.5 -30t78 29.5
t28.5 78.5zM290.5 -85.5q27.5 27.5 67 27.5t67 -27.5t27.5 -67t-27.5 -67t-67 -27.5t-67 27.5t-27.5 67t27.5 67z" />
    <glyph glyph-name="uF0261" unicode="&#xf0261;" horiz-adv-x="1516" 
d="M1276 740h260v-140h-95v-600h-165v740zM1204 532q0 -244 -307 -244v-74q0 -78 69.5 -78t66.5 93h160q2 -233 -224 -233q-81 0 -138.5 33.5t-82.5 95.5q-1 2 -2.5 7t-2.5 7q-47 -22 -105 -22q-20 0 -40 3q-31 -59 -95.5 -91.5t-149.5 -32.5q-131 0 -206.5 73t-75.5 207
v131h25q92 0 119.5 36.5t27.5 147.5v9h-263v140h923q37 7 69 7q106 0 169 -56.5t63 -158.5zM648 243q38 0 60 21.5t22 58.5t-22 58.5t-60 21.5t-60 -21.5t-22 -58.5t22 -58.5t60 -21.5zM838 420q148 0 184 52q17 24 17 59q0 76 -65 76q-54 0 -65 -60h-166q2 28 9 53h-344v-8
q0 -157 -33 -219t-138 -76v-39q0 -122 114 -122q85 0 110 57q-42 53 -42 130q0 95 61.5 150.5t157.5 55.5q66 0 116.5 -29t77.5 -80h6z" />
    <glyph glyph-name="uF0262" unicode="&#xf0262;" horiz-adv-x="1516" 
d="M1271 740h260v-140h-95v-600h-165v740zM-20 740h908q27 7 64 7q110 0 174 -59t64 -167.5t-63 -160.5q-70 -57 -230 -57v-89q0 -78 64 -78q37 0 50.5 23t11.5 70h160q2 -233 -219 -233q-85 0 -142.5 37.5t-78.5 105.5q-49 -22 -105 -22q-20 0 -40 3q-31 -59 -95.5 -91.5
t-149.5 -32.5q-131 0 -206.5 73t-75.5 207v131h22q94 2 122 36.5t28 147.5v9h-263v140zM648 243q38 0 60 21.5t22 58.5t-22 58.5t-60 21.5t-60 -21.5t-22 -58.5t22 -58.5t60 -21.5zM826 435q119 0 137 8t34 18q28 17 28 60t-22.5 64.5t-52.5 21.5t-49 -7h-493v-8
q0 -157 -33 -219t-138 -76v-39q0 -122 114 -122q85 0 110 57q-42 53 -42 130q0 95 61.5 150.5t157.5 55.5q61 0 109.5 -25t76.5 -69h2zM285.5 -86.5q27.5 27.5 67 27.5t67 -27.5t27.5 -67t-27.5 -67t-67 -27.5t-67 27.5t-27.5 67t27.5 67z" />
    <glyph glyph-name="uF0263" unicode="&#xf0263;" horiz-adv-x="1490" 
d="M1510 740v-140h-95v-600h-164v289h-355v-87q0 -66 58 -66q34 0 45.5 22t12.5 60h160q-4 -112 -51 -167t-163 -55q-84 0 -140 35.5t-76 99.5q-44 -15 -83.5 -15t-60.5 4q-31 -59 -95.5 -91.5t-149.5 -32.5q-131 0 -206.5 73t-75.5 207v131h29q89 3 116 38t27 146v9h-263
v140h1530zM237 258q0 -122 114 -122q86 0 110 58q-42 53 -42 129q0 96 64 151t165 55q76 0 132 -32.5t80 -91.5q47 10 62.5 42.5t15.5 100.5v52h-530v-8q0 -157 -33 -219t-138 -76v-39zM648 243q38 0 60 21t22 58.5t-22 59t-60 21.5t-60 -21.5t-22 -59t22 -58.5t60 -21z
M1251 425v175h-148v-62q0 -63 -14 -113h162zM285.5 -85.5q27.5 27.5 67 27.5t67 -27.5t27.5 -67t-27.5 -67t-67 -27.5t-67 27.5t-27.5 67t27.5 67z" />
    <glyph glyph-name="uF0264" unicode="&#xf0264;" horiz-adv-x="1277" 
d="M1297 740v-140h-95v-600h-164v600h-132v-196q0 -118 -46 -178.5t-154.5 -60.5t-159 56t-48.5 170h164q0 -26 2.5 -42.5t13.5 -30t28.5 -13.5t27 7t12.5 23q6 25 6 45v220h-308v-196q0 -118 -46 -178.5t-154.5 -60.5t-159 56t-48.5 170h164q0 -26 2.5 -42.5t13.5 -30
t28.5 -13.5t27 7t12.5 23q6 25 6 45v220h-310v140h1317z" />
    <glyph glyph-name="uF0265" unicode="&#xf0265;" horiz-adv-x="1186" 
d="M1206 740v-140h-95v-600h-165v163q-59 -65 -175 -65q-118 0 -183 80q-34 42 -34 96.5t26.5 90.5t66.5 53v6q-43 20 -62 59.5t-19 116.5h-122v-196q0 -118 -46 -178.5t-154.5 -60.5t-159 56t-48.5 170h164q0 -26 2.5 -42.5t13.5 -30t28.5 -13.5t27 7t12.5 23q6 25 6 45
v220h-310v140h1226zM946 358v242h-215q0 -57 15.5 -84.5t62.5 -27.5h48v-132h-51q-87 0 -87 -61q0 -32 25 -47.5t62 -15.5q60 0 100 34t40 92z" />
    <glyph glyph-name="uF0266" unicode="&#xf0266;" horiz-adv-x="1361" 
d="M1381 740v-140h-95v-600h-164v366h-105v-36q0 -234 -226 -234q-123 0 -181.5 65.5t-58.5 168.5v167h164v-140q0 -61 16 -91t58 -30t54.5 29t12.5 92v140h266v103h-678v-196q0 -118 -46 -178.5t-154.5 -60.5t-159 56t-48.5 170h164q0 -26 2.5 -42.5t13.5 -30t28.5 -13.5
t27 7t12.5 23q6 25 6 45v220h-310v140h1401z" />
    <glyph glyph-name="uF0267" unicode="&#xf0267;" horiz-adv-x="1385" 
d="M1405 740v-140h-95v-600h-164v600h-123v-233q0 -108 -56 -169.5t-171 -61.5t-171 61.5t-56 169.5v233h-125v-196q0 -118 -46 -178.5t-154.5 -60.5t-159 56t-48.5 170h164q0 -26 2.5 -42.5t13.5 -30t28.5 -13.5t27 7t12.5 23q6 25 6 45v220h-310v140h1425zM861 360v240
h-130v-240q0 -84 65 -84t65 84z" />
    <glyph glyph-name="uF0268" unicode="&#xf0268;" horiz-adv-x="1090" 
d="M998 387h-177q-55 0 -88.5 -27.5t-33.5 -74t26 -70t68 -23.5t64 19.5t22 52.5h149v-292h-163v116q-33 -33 -104 -33q-96 0 -161 59.5t-65 177t76.5 179t199.5 61.5h23v68h-390v-196q0 -118 -46 -178.5t-154.5 -60.5t-159 56t-48.5 170h164q0 -26 2.5 -42.5t13.5 -30
t28.5 -13.5t27 7t12.5 23q6 25 6 45v220h-310v140h1130v-140h-112v-213z" />
    <glyph glyph-name="uF0269" unicode="&#xf0269;" horiz-adv-x="1232" 
d="M1249 740v-140h-92v-600h-165v148q-64 -70 -192 -70q-95 0 -164 49.5t-69 135.5q0 114 108 153v6q-52 17 -83.5 59t-31.5 104q0 10 1 15h-117v-196q0 -118 -46 -178.5t-154.5 -60.5t-159 56t-48.5 170h164q0 -26 2.5 -42.5t13.5 -30t28.5 -13.5t27 7t12.5 23q6 25 6 45
v220h-310v140h694q30 10 69 10q90 0 138 -53.5t42 -138.5h-129q1 25 -11.5 38.5t-32.5 13.5t-32.5 -12.5t-12.5 -32.5q0 -42 36 -60.5t88 -18.5h62v-132h-40q-119 0 -119 -70q0 -34 29.5 -52.5t74.5 -18.5q69 0 112.5 44t43.5 117v366h257z" />
    <glyph glyph-name="uF026A" unicode="&#xf026a;" horiz-adv-x="1658" 
d="M954 740h724v-140h-95v-600h-164v151q-58 -73 -177 -73q-148 0 -221 103q-69 -103 -229 -103q-106 0 -177.5 50t-71.5 137q0 112 107 151v6q-52 17 -83.5 59t-31.5 104q0 10 1 15h-92v-196q0 -118 -46 -178.5t-154.5 -60.5t-159 56t-48.5 170h164q0 -26 2.5 -42.5
t13.5 -30t28.5 -13.5t27 7t12.5 23q6 25 6 45v220h-310v140h669q30 10 69 10q90 0 138 -53.5t42 -138.5h-129q1 25 -11.5 38.5t-32.5 13.5t-32.5 -12.5t-12.5 -32.5q0 -42 36 -60.5t88 -18.5h62v-132h-40q-119 0 -119 -70q0 -34 29.5 -52.5t74.5 -18.5q141 0 150 159
q-1 32 0 66q54 0 86 9t46.5 31t18.5 44t4 62v16h-162v140zM1277 600v-23q0 -113 -29.5 -164t-116.5 -62q0 -60 37 -96.5t106 -36.5t107 41.5t38 111.5v229h-142z" />
    <glyph glyph-name="uF026B" unicode="&#xf026b;" horiz-adv-x="1569" 
d="M958 740h631v-140h-95v-600h-157v124q-53 -65 -151 -65q-57 0 -105 27t-79 74q-63 -82 -211 -82q-99 0 -170.5 49.5t-71.5 135.5q0 114 108 153v6q-52 17 -83.5 59t-31.5 104q0 10 1 15h-99v-196q0 -118 -46 -178.5t-154.5 -60.5t-159 56t-48.5 170h164q0 -26 2.5 -42.5
t13.5 -30t28.5 -13.5t27 7t12.5 23q6 25 6 45v220h-310v140h676q30 10 69 10q90 0 138 -53.5t42 -138.5h-129q1 25 -11.5 38.5t-32.5 13.5t-32.5 -12.5t-12.5 -32.5q0 -42 36 -60.5t88 -18.5h62v-132h-40q-119 0 -119 -70q0 -34 29.5 -52.5t74.5 -18.5q117 0 145 121
q10 91 72.5 152t156 61t145.5 -66v119h-379v140zM1337 303v1q0 49 -28.5 78t-78 29t-79.5 -30t-30 -78t30 -78t79.5 -30t78 29.5t28.5 78.5z" />
    <glyph glyph-name="uF026C" unicode="&#xf026c;" horiz-adv-x="1307" 
d="M1327 740v-140h-95v-600h-164v351h-140q35 -39 35 -104q0 -88 -57 -137.5t-155.5 -49.5t-162 59.5t-63.5 160t68.5 155t177.5 54.5h297v111h-624v-196q0 -118 -46 -178.5t-154.5 -60.5t-159 56t-48.5 170h164q0 -26 2.5 -42.5t13.5 -30t28.5 -13.5t27 7t12.5 23
q6 25 6 45v220h-310v140h1347zM752 200q35 0 54.5 21t19.5 56q0 72 -74 72q-36 0 -57.5 -18.5t-21.5 -53t22 -56t57 -21.5z" />
    <glyph glyph-name="uF026D" unicode="&#xf026d;" horiz-adv-x="1711" 
d="M1731 740v-140h-95v-600h-164v157q-56 -79 -176 -79t-192 71.5t-85 196.5h-116q35 -39 35 -104q0 -88 -57 -137.5t-155.5 -49.5t-162 59.5t-63.5 160t68 153.5t178 53h340q17 0 39 4.5t26.5 8t11 18.5t6.5 28v60h-725v-196q0 -118 -46 -178.5t-154.5 -60.5t-159 56
t-48.5 170h164q0 -26 2.5 -42.5t13.5 -30t28.5 -13.5t27 7t12.5 23q6 25 6 45v220h-310v140h1751zM727 195q35 0 54.5 21t19.5 56q0 72 -74 72q-36 0 -57.5 -18.5t-21.5 -53t22 -56t57 -21.5zM1330 600v-23q0 -110 -30 -155.5t-114 -55.5q-3 -64 33.5 -106t106 -42t108 45.5
t38.5 117.5v219h-142z" />
    <glyph glyph-name="uF026E" unicode="&#xf026e;" horiz-adv-x="1168" 
d="M1186 740v-140h-95v-600h-157v115q-52 -61 -157 -61t-174 70t-69 179t69 179t173.5 70t157.5 -62v110h-490v-196q0 -118 -46 -178.5t-154.5 -60.5t-159 56t-48.5 170h164q0 -26 2.5 -42.5t13.5 -30t28.5 -13.5t27 7t12.5 23q6 25 6 45v220h-310v140h1206zM943 303
q0 57 -37.5 92.5t-87 35.5t-83.5 -20l205 -137q3 14 3 29zM676 303q0 -59 38 -93.5t91 -34.5t85 23l-209 140q-5 -18 -5 -35z" />
    <glyph glyph-name="uF026F" unicode="&#xf026f;" horiz-adv-x="1338" 
d="M1358 740v-140h-95v-600h-164v332h-120v-40q0 -111 -54.5 -172.5t-156 -61.5t-166 57.5t-64.5 154.5t65.5 146.5t177.5 49.5h44v46q0 74 -19 88q-10 8 -26 8t-26 -7.5t-14 -24.5q-5 -27 -5 -64h-164q0 50 7 88h-134v-196q0 -118 -46 -178.5t-154.5 -60.5t-159 56
t-48.5 170h164q0 -26 2.5 -42.5t13.5 -30t28.5 -13.5t27 7t12.5 23q6 25 6 45v220h-310v140h719q31 10 78 10q108 0 155 -62.5t47 -178.5v-43h120v274h259zM825 286v46h-42q-41 0 -67 -17.5t-26 -50.5t19.5 -50.5t50.5 -17.5q65 0 65 90z" />
    <glyph glyph-name="uF0270" unicode="&#xf0270;" horiz-adv-x="1713" 
d="M1002 740h731v-140h-95v-600h-164v155q-56 -77 -176.5 -77t-192 66.5t-84.5 187.5h-68v-40q0 -111 -54.5 -172.5t-156 -61.5t-166 57.5t-64.5 154.5t65.5 146.5t177.5 49.5h44v46q0 74 -19 88q-10 8 -26 8t-26 -7.5t-14 -24.5q-5 -27 -5 -64h-164q0 50 7 88h-108v-196
q0 -118 -46 -178.5t-154.5 -60.5t-159 56t-48.5 170h164q0 -26 2.5 -42.5t13.5 -30t28.5 -13.5t27 7t12.5 23q6 25 6 45v220h-310v140h693q31 10 78 10q108 0 155 -62.5t47 -178.5v-43h109.5t64.5 4.5t26.5 8t11 18.5t6.5 28v75h-169v140zM799 286v46h-42q-41 0 -67 -17.5
t-26 -50.5t19.5 -50.5t50.5 -17.5q65 0 65 90zM1332 600v-38q0 -110 -30 -155.5t-114 -55.5q-3 -62 33 -97.5t107 -35.5t108.5 43.5t37.5 119.5v219h-142z" />
    <glyph glyph-name="uF0271" unicode="&#xf0271;" horiz-adv-x="1319" 
d="M1338 740v-140h-95v-600h-164v332h-125v-40q0 -111 -54.5 -172.5t-156 -61.5t-166 57.5t-64.5 154.5t65.5 146.5t177.5 49.5h44v134h-356v-196q0 -118 -46 -178.5t-154.5 -60.5t-159 56t-48.5 170h164q0 -26 2.5 -42.5t13.5 -30t28.5 -13.5t27 7t12.5 23q6 25 6 45v220
h-310v140h1358zM800 286v46h-42q-41 0 -67 -17.5t-26 -50.5t19.5 -50.5t50.5 -17.5q65 0 65 90zM1079 466v134h-125v-134h125z" />
    <glyph glyph-name="uF0272" unicode="&#xf0272;" horiz-adv-x="1241" 
d="M1261 740v-140h-95v-600h-164v151q-58 -73 -177 -73q-147 0 -218.5 99t-62.5 261q54 0 86 9t46.5 31t18.5 44t4 62v16h-255v-196q0 -118 -46 -178.5t-154.5 -60.5t-159 56t-48.5 170h164q0 -26 2.5 -42.5t13.5 -30t28.5 -13.5t27 7t12.5 23q6 25 6 45v220h-310v140h1281z
M860 600v-23q0 -113 -29.5 -164t-116.5 -62q0 -60 37 -96.5t106 -36.5t107 41.5t38 111.5v229h-142z" />
    <glyph glyph-name="uF0273" unicode="&#xf0273;" horiz-adv-x="1246" 
d="M1265 740v-140h-95v-600h-164v151q-58 -73 -177 -73q-144 0 -219 99l-174 -184h-177q226 237 297 314q-12 62 -8 131q54 0 86 9t46.5 31t18.5 44t4 62v16h-259v-196q0 -118 -46 -178.5t-154.5 -60.5t-159 56t-48.5 170h164q0 -26 2.5 -42.5t13.5 -30t28.5 -13.5t27 7
t12.5 23q6 25 6 45v220h-310v140h1285zM864 600v-23q0 -113 -29.5 -164t-116.5 -62q0 -60 37 -96.5t106 -36.5t107 41.5t38 111.5v229h-142z" />
    <glyph glyph-name="uF0274" unicode="&#xf0274;" horiz-adv-x="1365" 
d="M1385 600h-240v-89q82 -14 132 -76t50 -166q0 -127 -81.5 -196.5t-225.5 -59.5v142q142 -9 142 115q0 47 -21.5 74t-62.5 27q-102 0 -82 -165h-150q18 165 -80 165q-42 0 -63 -27t-21 -74q0 -124 142 -115v-142q-144 -10 -225.5 59.5t-81.5 192.5t63.5 186.5t163.5 63.5
q129 0 179 -100q22 47 64 72v113h-543v-196q0 -118 -46 -178.5t-154.5 -60.5t-159 56t-48.5 170h164q0 -26 2.5 -42.5t13.5 -30t28.5 -13.5t27 7t12.5 23q6 25 6 45v220h-310v140h1405v-140z" />
    <glyph glyph-name="uF0275" unicode="&#xf0275;" horiz-adv-x="1127" 
d="M1147 740v-140h-95v-600h-157v124q-53 -65 -150 -65t-161.5 71t-64.5 173t64.5 173t162 71t149.5 -66v119h-451v-196q0 -118 -46 -178.5t-154.5 -60.5t-159 56t-48.5 170h164q0 -26 2.5 -42.5t13.5 -30t28.5 -13.5t27 7t12.5 23q6 25 6 45v220h-310v140h1167zM895 303v1
q0 49 -28.5 78t-78 29t-79.5 -30t-30 -78t30 -78t79.5 -30t78 29.5t28.5 78.5z" />
    <glyph glyph-name="uF0276" unicode="&#xf0276;" horiz-adv-x="1297" 
d="M1317 740v-140h-95v-600h-164v289h-355v-87q0 -66 58 -66q34 0 45.5 22t12.5 60h160q-4 -112 -51 -167t-159 -55t-172 57t-60 157v191h81q79 0 103 33t24 114v52h-301v-196q0 -118 -46 -178.5t-154.5 -60.5t-159 56t-48.5 170h164q0 -26 2.5 -42.5t13.5 -30t28.5 -13.5
t27 7t12.5 23q6 25 6 45v220h-310v140h1337zM1058 425v175h-148v-62q0 -63 -14 -113h162z" />
    </font>
</defs>
</svg>
