<?xml version="1.0" standalone="no"?>
<!DOCTYPE svg PUBLIC "-//W3C//DTD SVG 1.1//EN" "http://www.w3.org/Graphics/SVG/1.1/DTD/svg11.dtd" >
<!--
2013-9-30: Created.
-->
<svg>
<metadata>
Created by iconfont
</metadata>
<defs>

<font id="xfont" horiz-adv-x="1024" >
  <font-face
    font-family="xfont"
    font-weight="500"
    font-stretch="normal"
    units-per-em="1024"
    ascent="896"
    descent="-128"
  />
    <missing-glyph />
    
    <glyph glyph-name="tubiaozhizuomoban8" unicode="&#58656;" d="M424.04043957 164.10175630000003L688.74762534 362.66666667000004 424.04043957 561.23157704v-397.12982074z m-83.67895388 604.94636459c-53.02428761-22.09345317-99.97287558-53.43853985-140.56959577-94.03526005-40.59672019-40.73480429-72.07989097-87.54530818-94.03526005-140.56959579-23.47429398-54.40512843-35.21144098-111.71002258-35.211441-171.63851429s11.737147-117.23338587 35.211441-171.63851431c22.09345317-53.02428761 53.43853985-99.97287558 94.03526005-140.5695958 40.59672019-40.59672019 87.54530818-72.07989097 140.56959577-94.03526005 54.40512843-23.47429398 111.71002258-35.21144098 171.63851431-35.21144098s117.23338587 11.737147 171.63851431 35.21144098c53.02428761 22.09345317 99.97287558 53.43853985 140.56959577 94.03526005s72.07989097 87.54530818 94.03526005 140.5695958c23.47429398 54.40512843 35.21144098 111.71002258 35.211441 171.63851431 0 59.92849171-11.737147 117.23338587-35.211441 171.63851429-22.09345317 53.02428761-53.43853985 99.97287558-94.03526005 140.56959579-40.73480429 40.73480429-87.54530818 72.07989097-140.56959577 94.03526005-54.40512843 23.47429398-111.71002258 35.21144098-171.63851431 35.21144098s-117.23338587-11.87523108-171.63851431-35.21144098z m34.10676834-731.01713171c-41.97756103 17.26051028-79.39834732 42.25372918-112.12427483 74.97965669-32.7259275 32.7259275-57.7191464 70.1467138-74.97965669 112.12427483-18.64135111 44.04882225-27.89298463 89.89273758-27.89298464 137.53174597s9.25163351 93.34483965 27.89298464 137.53174597c17.26051028 41.97756103 42.25372918 79.39834732 74.97965669 112.12427483 32.7259275 32.7259275 70.1467138 57.7191464 112.12427483 74.97965669 44.04882225 18.64135111 89.89273758 27.89298463 137.53174597 27.89298464s93.34483965-9.25163351 137.53174597-27.89298464c41.97756103-17.26051028 79.39834732-42.25372918 112.12427483-74.97965669 32.7259275-32.7259275 57.7191464-70.1467138 74.97965669-112.12427483 18.64135111-44.04882225 27.89298463-89.89273758 27.89298464-137.53174597s-9.25163351-93.34483965-27.89298464-137.53174597c-17.26051028-41.97756103-42.25372918-79.39834732-74.97965669-112.12427483-32.7259275-32.7259275-70.1467138-57.7191464-112.12427483-74.97965669-44.04882225-18.64135111-89.89273758-27.89298463-137.53174597-27.89298464s-93.34483965 9.25163351-137.53174597 27.89298464z"  horiz-adv-x="1024" />

    
    <glyph glyph-name="tubiaozhizuomoban9" unicode="&#58658;" d="M154.01635925-80.44515345000002h253.38429102V805.77848679H154.01635925v-886.22364024z m505.24965714 886.22364024v-886.08555615h253.38429102V805.77848679H659.26601639z"  horiz-adv-x="1024" />

    
    <glyph glyph-name="tubiaozhizuomoban18" unicode="&#58669;" d="M697.99925886 479.76196846c-21.40303275 35.21144098-50.95302637 61.99975295-88.37381266 80.3649359v-107.84366827l120.54740384-120.54740385c1.51892491 9.94205392 2.3474294 20.2983601 2.34742939 30.93083443-0.13808409 42.1156451-11.59906291 81.0553563-34.52102057 117.09530179zM855.2770286 362.66666667000004c0-43.63457002-9.25163351-86.85488777-27.61681645-129.66095328l74.56540444-73.46073179c33.69251609 63.51867787 50.53877413 131.31796227 50.53877413 203.25976916 0 68.90395707-14.91308089 133.94155984-44.73924267 195.11280829-29.82616178 58.96190314-70.83713422 109.08642503-122.89483324 150.37356564-52.05769902 41.2871406-110.60534992 69.31820932-175.64295271 83.81703795v-101.07754826c47.5009243-13.80840823 89.75465349-36.7303659 126.89927165-68.90395705 37.14461813-32.17359118 66.00419135-70.42288197 86.71680368-114.74787241 21.40303275-45.98199941 32.17359118-94.17334414 32.17359117-144.71211825zM133.23536224 803.43105739l-61.99975296-61.99975296 231.84317419-231.84317419H71.23560928v-293.84292714H267.59117431l244.40882569-244.54690976V300.66691372l208.92121653-208.92121653c-35.21144098-26.78831197-72.35605913-45.98199941-111.29577033-57.44297823V-66.77482929999996c67.38503216 15.32733314 127.45160797 44.73924267 180.1997274 88.37381267l101.07754825-99.83479151 61.99975296 61.99975296-819.66711257 819.66711257zM512 754.13504l-102.18222091-102.1822209 102.18222091-102.1822209v204.3644418z"  horiz-adv-x="1024" />

    
    <glyph glyph-name="tubiaozhizuomoban19" unicode="&#58666;" d="M261.65355878 529.61032217v-333.74922691h221.6249521L762.34644122-81.96407836000003V807.2974117L483.27851088 529.61032217H261.65355878z"  horiz-adv-x="1024" />

    
    <glyph glyph-name="tubiaozhizuomoban20" unicode="&#58667;" d="M845.1968906 494.39888119c-24.1647144 39.63013162-56.89064192 69.73246157-98.17778251 90.44507391v-444.35457686c41.2871406 20.71261235 74.01306812 50.81494228 98.17778251 90.44507391 25.8217234 40.45863612 38.80162713 84.36937428 38.80162713 131.73221452s-12.97990373 91.2735784-38.80162713 131.73221452z m-705.19540833 33.554432v-330.71137712h220.93453169L635.99950592-77.82155588V803.15488922L360.93601396 527.95331319h-220.93453169z"  horiz-adv-x="1024" />

    
    <glyph glyph-name="tubiaozhizuomoban21" unicode="&#58668;" d="M59.91271453 513.3164004600001v-301.43755166h201.326592L512-38.88184467999997V764.2151780199999L261.23930653 513.3164004600001H59.91271453zM702.69411766 482.79981828c-21.95536909 36.03994548-52.19578311 63.51867787-90.72124208 82.43619714v-405.0006134c38.52545897 18.7794352 68.62778891 46.25816757 90.72124208 82.43619712 23.61237808 36.86844997 35.34952507 76.91283385 35.34952507 120.13315162 0 43.08223369-11.737147 83.12661755-35.34952507 119.99506752z m-90.58315799 216.65392514c48.60559698-14.08457639 92.1020829-37.69695447 130.07520552-70.69905015 38.11120672-33.00209567 67.66120033-72.21797505 88.92614902-117.78572221C853.0676833 463.882299 864.11440987 414.44819753 864.11440987 362.66666667000004s-11.04672658-101.21563233-33.00209566-148.30230439c-21.12686459-45.56774717-50.81494228-84.78362653-88.92614902-117.78572221-38.11120672-33.00209567-81.46960857-56.47638966-130.07520552-70.69905015v-103.56306172c66.69461175 14.91308089 126.76118755 43.49648592 180.19972741 85.88829921 53.30045577 42.39181327 95.2780168 93.89717597 125.93268305 154.23991991 30.65466627 62.82825745 45.98199941 129.52286919 45.98199942 200.22191935s-15.32733314 137.3936619-45.98199942 200.22191935c-30.65466627 60.48082805-72.6322273 111.84810667-125.93268305 154.23991991-53.43853985 42.39181327-113.36703157 70.97521831-180.19972741 85.88829921v-103.56306172z"  horiz-adv-x="1024" />

    
    <glyph glyph-name="tubiaozhizuomoban22" unicode="&#58662;" d="M198.272965 237.42440401h-126.62310347V-77.82155588h315.2459599v126.62310347H198.272965V237.42440401z m-126.62310347 250.48452532h126.62310347V676.39370167h188.48477234v126.62310347H71.64986153v-315.10787581z m754.07717347-438.96929766H637.24226266v-126.62310347H952.48822255V237.42440401h-126.62310347v-188.48477234zM637.24226266 803.01680514v-126.62310347h188.48477234v-188.48477234h126.62310347V803.01680514H637.24226266z"  horiz-adv-x="1024" />

    
    <glyph glyph-name="tubiaozhizuomoban23" unicode="&#58663;" d="M71.64986153 110.80130054000006h188.48477234v-188.48477234h126.62310347V237.42440401H71.64986153v-126.62310347z m188.48477234 503.73073226H71.64986153v-126.62310347h315.2459599V803.01680514h-126.62310347v-188.48477234z m377.10762879-692.2155046h126.62310347V110.80130054000006h188.48477234v126.62310347H637.24226266v-315.10787581z m126.62310347 692.2155046V803.01680514h-126.62310347v-315.2459599H952.48822255v126.62310347H763.86536613z"  horiz-adv-x="1024" />

    
    <glyph glyph-name="tubiaozhizuomoban26" unicode="&#58661;" d="M512 647.8864836600001V822.748801L291.57607257 603.26752756l220.42392743-221.52369042V558.80568048c48.23246309 0 92.85141918-12.09739302 133.54265026-36.29217908 40.06279507-22.78080506 71.79881315-54.51682311 95.2080542-95.20805418 24.19478606-40.69123108 36.29217908-85.15307815 36.29217907-133.54265027s-12.09739302-92.85141918-36.29217907-133.54265025c-23.40924106-40.69123108-55.14525911-72.42724913-95.2080542-95.2080542-40.69123108-24.19478606-85.15307815-36.29217908-133.54265026-36.29217906s-92.85141918 12.09739302-133.54265026 36.29217906c-40.06279507 22.78080506-71.79881315 54.51682311-95.2080542 95.2080542-24.19478606 40.69123108-36.29217908 85.15307815-36.29217907 133.54265025h-87.98104017c0-48.23246309 9.26943102-94.26540019 27.96540207-137.62748427 17.28199003-42.73364807 42.26232108-80.28269917 75.09810213-112.33293522s70.22772315-57.0305671 112.33293522-75.09810214C417.73459981-50.62013171000001 463.61042791-60.203780749999964 512-60.203780749999964s94.26540019 9.58364903 137.62748428 28.90805607c42.1052121 17.91042605 79.49715414 42.89075709 112.33293522 75.09810214 32.83578106 32.05023607 57.81611211 69.59928714 75.09810213 112.33293522 18.69597103 43.5191931 27.96540207 89.39502117 27.96540207 137.62748427 0 48.23246309-9.26943102 94.26540019-27.96540207 137.6274843-17.28199003 42.1052121-42.26232108 79.49715414-75.09810213 112.33293519s-70.22772315 57.81611211-112.33293522 75.09810215c-43.36208409 19.32440705-89.39502117 29.06516507-137.62748428 29.06516507z"  horiz-adv-x="1024" />

    
    <glyph glyph-name="tubiaozhizuomoban27" unicode="&#58660;" d="M71.64986153-77.6834718L696.06608172 362.66666667000004 71.64986153 803.01680514v-880.70027694zM806.11909531 803.01680514v-880.70027694h146.23104316V803.01680514H806.11909531z"  horiz-adv-x="1024" />

    
    <glyph glyph-name="tubiaozhizuomoban28" unicode="&#58659;" d="M71.64986153 803.01680514H217.88090469v-880.70027694H71.64986153V803.01680514zM327.93391828 362.66666667000004l624.41622019-440.35013847V803.01680514L327.93391828 362.66666667000004z"  horiz-adv-x="1024" />

    
    <glyph glyph-name="tubiaozhizuomoban29" unicode="&#58642;" d="M398.21871618 685.64533518c0-31.75933893 11.59906291-59.3761554 34.79718874-82.57428121 23.19812583-23.19812583 50.81494228-34.79718875 82.57428121-34.79718875s59.3761554 11.59906291 82.57428123 34.79718875c23.19812583 23.19812583 34.79718875 50.81494228 34.79718874 82.57428121s-11.59906291 59.3761554-34.79718874 82.57428122c-23.19812583 23.19812583-50.81494228 34.93527282-82.57428123 34.93527282s-59.3761554-11.59906291-82.57428121-34.93527282c-23.19812583-23.33620992-34.79718875-50.81494228-34.79718874-82.57428122z m249.51793673-103.70114581c0-32.44975935 11.32289475-59.92849171 33.96868424-82.57428122 22.64578949-22.64578949 50.12452187-33.96868425 82.57428122-33.96868424s60.20465988 11.32289475 83.54086979 33.96868424c23.19812583 22.64578949 34.79718875 50.12452187 34.79718875 82.57428122s-11.59906291 60.20465988-34.79718875 83.5408698c-23.19812583 23.19812583-51.09111045 34.79718875-83.54086979 34.79718874s-59.92849171-11.59906291-82.57428122-34.79718874c-22.64578949-23.33620992-33.96868425-51.09111045-33.96868424-83.5408698z m161.55837628-248.68943223c0-15.87966947 5.79953147-29.68807769 17.39859438-41.2871406 11.59906291-11.59906291 25.40747114-17.39859437 41.28714061-17.39859438s29.68807769 5.79953147 41.28714062 17.39859438c11.59906291 11.59906291 17.39859437 25.40747114 17.39859437 41.2871406s-5.79953147 29.68807769-17.39859437 41.28714061c-11.59906291 11.59906291-25.40747114 17.39859437-41.28714062 17.39859437s-29.68807769-5.79953147-41.28714061-17.39859437c-11.59906291-11.59906291-17.39859437-25.26938706-17.39859438-41.28714061zM706.56047197 83.73682041999996c0-15.87966947 5.79953147-29.68807769 17.39859437-41.28714061 11.59906291-11.59906291 25.40747114-17.39859437 41.28714061-17.39859438s29.68807769 5.79953147 41.2871406 17.39859438c11.59906291 11.59906291 17.39859437 25.40747114 17.39859437 41.28714061s-5.79953147 29.68807769-17.39859437 41.28714062c-11.59906291 11.59906291-25.40747114 17.39859437-41.2871406 17.39859437s-29.68807769-5.79953147-41.28714061-17.39859437c-11.59906291-11.59906291-17.39859437-25.40747114-17.39859437-41.28714062z m-249.6560208-102.73455724c0-15.87966947 5.79953147-29.68807769 17.39859436-41.28714061s25.40747114-17.39859437 41.2871406-17.39859437 29.68807769 5.79953147 41.28714062 17.39859437 17.39859437 25.40747114 17.39859437 41.28714061-5.79953147 29.68807769-17.39859437 41.28714061c-11.59906291 11.59906291-25.40747114 17.39859437-41.28714062 17.39859437s-29.68807769-5.79953147-41.2871406-17.39859437c-11.59906291-11.59906291-17.39859437-25.40747114-17.39859436-41.28714061zM207.38651443 83.73682041999996c0-15.87966947 5.79953147-29.68807769 17.39859437-41.28714061 11.59906291-11.59906291 25.40747114-17.39859437 41.28714062-17.39859438s29.68807769 5.79953147 41.28714061 17.39859438c11.59906291 11.59906291 17.39859437 25.40747114 17.39859436 41.28714061s-5.79953147 29.68807769-17.39859436 41.28714062c-11.59906291 11.59906291-25.40747114 17.39859437-41.28714061 17.39859437s-29.68807769-5.79953147-41.28714062-17.39859437c-11.59906291-11.59906291-17.39859437-25.40747114-17.39859437-41.28714062z m-29.27382545 499.17395751c0-24.44088257 8.5612131-45.291579 25.68363932-62.41400518 17.12242621-17.12242621 37.97312263-25.68363931 62.41400519-25.68363932 24.44088257 0 45.291579 8.5612131 62.41400521 25.68363932 17.12242621 17.12242621 25.68363931 37.97312263 25.68363932 62.41400518 0 24.44088257-8.5612131 45.291579-25.68363932 62.41400521-17.12242621 17.12242621-37.97312263 25.68363931-62.41400521 25.68363932-24.44088257 0-45.291579-8.5612131-62.41400519-25.68363932-17.12242621-17.26051028-25.68363931-37.97312263-25.68363932-62.41400521z m-80.77918815-249.65602079c0-18.36518295 6.48995186-33.96868425 19.33177152-46.8105039s28.44532095-19.33177153 46.81050392-19.33177152c18.36518295 0 33.96868425 6.48995186 46.81050389 19.33177152s19.33177153 28.44532095 19.33177154 46.8105039c0 18.36518295-6.48995186 33.96868425-19.33177154 46.8105039s-28.44532095 19.33177153-46.81050389 19.33177153c-18.36518295 0-33.96868425-6.48995186-46.81050392-19.33177153s-19.33177153-28.44532095-19.33177152-46.8105039z"  horiz-adv-x="1024" />

    
    <glyph glyph-name="tubiaozhizuomoban30" unicode="&#58643;" d="M512 803.01680514c-119.02847895 0-221.6249521-41.97756103-307.65133537-125.79459898s-130.21328962-185.30883845-132.6988031-304.33731741c2.48551348 104.11539807 38.52545897 192.62729482 107.98175237 265.53569027C249.0879073 711.4670585700001 332.490693 747.9212563 429.70188695 747.9212563c98.45395068 0 182.68524089-37.55887038 252.41770245-112.67661116C751.99013505 560.12690436 786.78732379 469.26757821 786.78732379 362.66666667000004c0-23.06004175 8.14696086-42.52989734 24.30279848-58.40956682 16.15583763-15.87966947 35.62569324-23.88854624 58.40956682-23.88854623 22.78387358 0 42.25372918 8.00887677 58.40956681 23.88854623s24.30279849 35.34952507 24.30279848 58.40956682c0 121.51399243-42.9441496 225.35322231-128.97053287 311.3796056-85.8882992 86.02638326-189.72752909 128.97053287-311.24152151 128.97053287z m0-880.70027694c119.02847895 0 221.6249521 41.97756103 307.65133537 125.79459898s130.21328962 185.30883845 132.6988031 304.33731741c-2.48551348-104.11539807-38.52545897-192.62729482-107.98175237-265.53569027C774.9120927 13.866274770000018 691.509307-22.587922960000014 594.29811305-22.587922960000014c-98.45395068 0-182.68524089 37.55887038-252.41770245 112.67661116-69.87054563 75.11774077-104.80581847 165.97706693-104.80581846 272.57797847 0 23.06004175-8.14696086 42.52989734-24.30279851 58.40956682-16.15583763 15.87966947-35.62569324 23.88854624-58.4095668 23.88854623-22.78387358 0-42.25372918-8.00887677-58.40956682-23.88854623-16.15583763-15.87966947-24.30279849-35.34952507-24.30279848-58.40956682 0-121.51399243 42.9441496-225.35322231 128.97053287-311.3796056 86.02638326-86.02638326 189.86561317-128.97053287 311.3796056-128.97053287z"  horiz-adv-x="1024" />

    
    <glyph glyph-name="tubiaozhizuomoban31" unicode="&#58641;" d="M71.64986153 758.82989881h114.74787239V645.73903541h-114.74787239v113.0908634z m0-340.10109472h114.74787239v-112.12427484h-114.74787239v112.12427484z m0-339.13450616h114.74787239v-113.0908634h-114.74787239V79.59429793000004z m219.96794311 679.23560088h660.73233383V645.73903541H291.61780464v113.0908634z m0-340.10109472h660.73233383v-112.12427484H291.61780464v112.12427484z m0-339.13450616h660.73233383v-113.0908634H291.61780464V79.59429793000004z m0 0z"  horiz-adv-x="1024" />

    
    <glyph glyph-name="tubiaozhizuomoban3" unicode="&#58657;" d="M251.15653898 803.15488922v-880.9764451l692.35358868 440.48822255-692.35358868 440.48822255z"  horiz-adv-x="1024" />

    
    <glyph glyph-name="tubiaozhizuomoban131" unicode="&#58896;" d="M883.2-34.24000000000001c-3.62666667 0-7.14666667 0.96-10.34666667 2.66666667l-82.02666666 44.90666667c-30.29333333-7.57333333-62.61333333-14.93333333-94.82666667-14.93333334-61.65333333 0-121.06666667 16.21333333-171.62666667 46.93333334-49.06666667 29.76-86.18666667 70.93333333-107.62666666 119.25333333-2.24-0.96-4.58666667-1.6-7.04-1.81333333-10.56-0.85333333-21.44-1.38666667-32.21333334-1.38666667-35.94666667 0-64.85333333 5.86666667-98.24 12.69333333l-13.01333333 2.66666667-107.41333333-53.76c-2.98666667-1.49333333-6.29333333-2.24-9.6-2.24-5.22666667 0-10.24 1.81333333-14.18666667 5.22666667-6.50666667 5.76-8.96 14.82666667-6.18666667 23.04l27.73333334 83.09333333C73.6 294.4 29.86666667 373.33333333999997 29.86666667 460.48c0 164.90666667 155.94666667 299.09333333 347.62666666 299.09333334 169.49333333 0 319.89333333-105.92 349.97333334-246.4v-0.10666667c69.12-6.29333333 135.25333333-35.41333333 186.45333333-82.34666667 51.73333333-48.32 80.32-110.08 80.32-174.08 0-68.58666667-39.25333333-138.02666667-110.61333333-195.84l20.16-67.30666666c2.56-8.32-0.21333333-17.38666667-7.04-22.93333334-3.84-3.09333333-8.64-4.8-13.54666667-4.8z m-89.70666667 92.05333334c3.62666667 0 7.14666667-0.96 10.34666667-2.66666667l43.41333333-23.78666667-9.6 31.78666667v0.10666667c-2.24 8.53333333 0.96 17.6 8 22.82666666 68.05333333 50.98666667 105.6 111.57333333 105.6 170.56 0 116.58666667-117.01333333 215.14666667-255.46666666 215.14666667-141.22666667 0-256.10666667-96.53333333-256.10666667-215.14666667 0-118.61333333 114.77333333-215.14666667 255.89333333-215.14666666 30.72 0 62.08 8 92.48 15.68 1.92 0.42666667 3.73333333 0.64 5.44 0.64zM186.13333333 184.85333333999995l67.41333334 33.92c2.98666667 1.49333333 6.18666667 2.24 9.49333333 2.24 1.38666667 0 2.88-0.10666667 4.26666667-0.42666667l18.66666666-3.73333333c31.46666667-6.50666667 58.66666667-12.16 91.41333334-12.16h0.64c8.32 0 16.64 0.32 24.96 0.96-3.94666667 16.74666667-6.08 33.81333333-6.18666667 50.98666666 0 67.41333333 30.4 131.30666667 85.54666667 180.05333334 53.76 47.36 124.69333333 74.77333333 200.53333333 77.54666666-30.93333333 115.52-161.06666667 202.02666667-305.38666667 202.02666667-168 0-304.64-114.77333333-304.64-255.78666667 0-78.18666667 40.85333333-146.24 121.28-202.45333333 7.78666667-5.44 11.09333333-15.46666667 8.10666667-24.42666667l-2.24-6.61333333-13.86666667-42.13333333z m598.29333334 57.81333333c-25.92 0-47.04 21.12-47.04 47.04 0 16.74666667 9.06666667 32.42666667 23.57333333 40.74666667 7.14666667 4.16 15.25333333 6.29333333 23.57333333 6.29333333 8.21333333 0 16.42666667-2.13333333 23.57333334-6.29333333 14.50666667-8.42666667 23.57333333-24 23.57333333-40.74666667-0.10666667-25.92-21.22666667-47.04-47.25333333-47.04z m-177.49333334 0c-25.92 0-47.04 21.12-47.04 47.04s21.12 47.04 47.04 47.04 47.04-21.12 47.04-47.04-21.12-47.04-47.04-47.04zM268.90666667 477.44c-9.49333333 0-18.77333333 2.56-26.88 7.36-16.64 9.81333333-26.45333333 27.94666667-25.81333334 47.25333334 0.96 28.48 24.10666667 50.88 52.69333334 50.88 28.58666667 0 51.73333333-22.29333333 52.69333333-50.88 0.64-19.30666667-9.17333333-37.33333333-25.81333333-47.25333334-8.10666667-4.8-17.38666667-7.36-26.88-7.36z m228.26666666 1.70666667c-29.12 0-52.69333333 23.68-52.69333333 52.69333333 0 29.12 23.68 52.69333333 52.69333333 52.69333334s52.69333333-23.68 52.69333334-52.69333334-23.57333333-52.69333333-52.69333334-52.69333333z"  horiz-adv-x="1024" />

    
    <glyph glyph-name="tubiaozhizuomoban1" unicode="&#58897;" d="M257.7-6.3333333299999595c-9.7 0-18.7 3.7-25.5 10.5-6.8 6.8-10.5 15.9-10.5 25.6 0 5.4 1.2 9.7 2.1 12.9 0.2 0.7 0.4 1.2 0.5 1.8l0.1 0.4c0.6 2.3 12.3 45.6 17.9 66.5 0.4 1.2 0.5 1.9 0.5 2.2-0.1 1.1-0.8 2-1.7 2.7C149 182.96666667 96 279.76666666999995 96 381.76666666999995c0 47.8 11.2 94.1 33.3 137.6 21.2 41.7 51.5 79.1 90 111.2 38.1 31.8 82.6 56.7 131.9 74.1 50.9 17.9 104.9 27 160.7 27 55.6 0 109.6-9 160.6-27 49.4-17.4 93.8-42.3 132-74.1 38.5-32 68.8-69.4 90-111.2C916.9 475.86666667 928 429.56666667 928 381.66666667000004c0-47.8-11.2-94.1-33.3-137.6-21.2-41.7-51.5-79.1-90-111.2-38.2-31.8-82.6-56.7-131.9-74.1-50.9-17.9-104.9-27-160.7-27-45.9 0-91.2 6.3-134.6 18.8l-0.4 0.1c-1.6 0.5-3.2 0.8-4.8 0.8-3 0-5.9-1-9.5-3l-85.9-49.4c-4.2-2.2-10.6-5.4-19.2-5.4zM512 685.96666667c-204.1 0-370.2-136.5-370.2-304 0-87.2 46-170.5 126.3-228.6l0.1-0.1c12.5-9.2 20.2-23.8 20.5-39.2v-0.3c0-5.7-1.2-10.6-2.1-14.2-4.3-15.9-9.6-35.7-13.4-49.4l66.8 38.4c10.7 6.1 21.2 9 32.2 9 6.1 0 12.1-0.9 18.1-2.7 39.3-11.2 80.2-17 121.8-17 204.1 0 370.3 136.5 370.3 304-0.2 167.6-166.3 304.1-370.4 304.1z m133.8-256.7c-33.2 0-60.2 26.9-60.2 60s27 60 60.2 60 60.2-26.9 60.2-60-27-60-60.2-60z m-268.1 0c-33 0-60 26.9-60.2 59.9 0 33.2 27 60.1 60.2 60.1s60.2-26.9 60.2-60-26.9-60-60.2-60z"  horiz-adv-x="1024" />

    
    <glyph glyph-name="tubiaozhizuomoban250" unicode="&#58626;" d="M512 621.3973333399999l419.61244445-419.49866667c22.18666667-22.18666667 22.18666667-58.25422222 0-80.44088889s-58.25422222-22.18666667-80.4408889 0L512 460.51555556 172.71466667 121.34400000000005c-22.18666667-22.18666667-58.25422222-22.18666667-80.44088889 0s-22.18666667 58.25422222 0 80.44088889L512 621.3973333399999z m0 0"  horiz-adv-x="1024" />

    
    <glyph glyph-name="tubiaozhizuomoban2511" unicode="&#58627;" d="M512 104.73244445L92.27377778 524.34488889c-22.18666667 22.18666667-22.18666667 58.25422222 0 80.44088889s58.25422222 22.18666667 80.44088889 0L512 265.61422222l339.17155555 339.17155556c22.18666667 22.18666667 58.25422222 22.18666667 80.4408889 0s22.18666667-58.25422222 0-80.44088889L512 104.73244445z m0 0"  horiz-adv-x="1024" />

    
    <glyph glyph-name="tubiaozhizuomoban252" unicode="&#58624;" d="M253.49688889 363.23555555999997l419.61244444 419.61244444c22.18666667 22.18666667 58.25422222 22.18666667 80.44088889 0s22.18666667-58.25422222 0-80.44088888l-339.05777777-339.17155556 339.17155555-339.17155556c22.18666667-22.18666667 22.18666667-58.25422222 0-80.44088888s-58.25422222-22.18666667-80.44088889 0L253.49688889 363.23555555999997z m0 0"  horiz-adv-x="1024" />

    
    <glyph glyph-name="tubiaozhizuomoban253" unicode="&#58625;" d="M770.27555555 363.23555555999997L350.66311111-56.376888880000024c-22.18666667-22.18666667-58.25422222-22.18666667-80.44088889 0s-22.18666667 58.25422222 0 80.44088888l339.05777778 339.17155556-339.17155555 339.17155556c-22.18666667 22.18666667-22.18666667 58.25422222 0 80.44088888s58.25422222 22.18666667 80.44088888 0L770.27555555 363.23555555999997z m0 0"  horiz-adv-x="1024" />

    
    <glyph glyph-name="tubiaozhizuomoban254" unicode="&#58630;" d="M875.86133333 126.57777778000002c10.24-10.80888889 25.6-15.24622222 40.04977778-11.60533333 14.44977778 3.64088889 25.94133333 14.67733333 29.92355556 29.01333333 4.096 14.336 0.11377778 29.80977778-10.35377778 40.39111111L532.82133333 599.552c-7.96444445 8.192-18.88711111 12.74311111-30.26488888 12.62933334-11.37777778-0.11377778-22.18666667-4.89244445-29.92355556-13.19822222L86.47111111 183.808c-15.01866667-16.83911111-13.88088889-42.66666667 2.73066667-58.02666666 16.49777778-15.36 42.32533333-14.67733333 58.14044444 1.47911111l356.46577778 383.20355555 372.05333333-383.88622222z m0 0"  horiz-adv-x="1024" />

    
    <glyph glyph-name="tubiaozhizuomoban255" unicode="&#58631;" d="M147.22844445 598.75555556c-15.70133333 16.27022222-41.52888889 16.83911111-58.14044445 1.47911111-16.49777778-15.36-17.74933333-41.18755555-2.73066667-58.02666667l386.27555556-415.17511111c7.73688889-8.30577778 18.54577778-13.08444445 29.92355556-13.19822222 11.37777778-0.11377778 22.30044445 4.43733333 30.26488888 12.62933333l402.54577778 415.17511112c10.46755555 10.58133333 14.44977778 26.05511111 10.35377778 40.3911111-4.096 14.336-15.47377778 25.48622222-29.92355556 29.01333334-14.44977778 3.64088889-29.80977778-0.79644445-40.04977778-11.60533334l-372.05333333-383.88622222-356.46577777 383.20355556z m0 0"  horiz-adv-x="1024" />

    
    <glyph glyph-name="tubiaozhizuomoban256" unicode="&#58629;" d="M747.29244445 401.80622222L332.11733333 787.968c-16.83911111 15.01866667-42.66666667 13.88088889-58.02666666-2.73066666-15.36-16.49777778-14.67733333-42.32533333 1.47911111-58.14044445L658.77333333 370.74488888999997 274.88711111-1.4222222199999806c-16.49777778-15.92888889-16.83911111-42.21155555-0.91022222-58.70933333s42.21155555-16.83911111 58.70933333-0.91022223l415.17511111 402.54577778c8.192 7.96444445 12.74311111 18.88711111 12.62933334 30.26488889-0.11377778 11.37777778-4.89244445 22.30044445-13.19822222 30.03733333"  horiz-adv-x="1024" />

    
    <glyph glyph-name="tubiaozhizuomoban257" unicode="&#58628;" d="M747.86133333-1.6497777800000222L364.08888889 370.51733334000005l383.20355556 356.46577778c16.83911111 15.58755555 17.74933333 41.87022222 2.048 58.70933333-15.58755555 16.72533333-41.87022222 17.74933333-58.70933334 2.048L275.56977778 401.57866667c-8.30577778-7.73688889-13.08444445-18.54577778-13.312-29.92355555-0.11377778-11.37777778 4.43733333-22.30044445 12.62933333-30.2648889l415.17511111-402.54577777c16.61155555-15.01866667 42.09777778-14.10844445 57.68533333 1.93422222 15.58755555 16.04266667 15.58755555 41.52888889 0.11377778 57.57155555"  horiz-adv-x="1024" />

    
    <glyph glyph-name="tubiaozhizuomoban571" unicode="&#58640;" d="M450.88 42.133333340000036c-210.66666667 0-382.08 171.41333333-382.08 382.08S240.21333333 806.29333334 450.88 806.29333334s382.08-171.41333333 382.08-382.08-171.41333333-382.08-382.08-382.08z m0 670.08c-158.82666667 0-288-129.17333333-288-288s129.17333333-288 288-288 288 129.17333333 288 288-129.17333333 288-288 288z m0 0M897.06666667-79.89333333000002c-14.82666667 0-29.65333333 5.65333333-40.96 16.96L656.53333333 136.64c-22.61333333 22.61333333-22.61333333 59.2 0 81.81333334 22.61333333 22.61333333 59.2 22.61333333 81.81333334 0l199.57333333-199.57333334c22.61333333-22.61333333 22.61333333-59.2 0-81.81333333-11.2-11.30666667-26.02666667-16.96-40.85333333-16.96"  horiz-adv-x="1024" />

    
    <glyph glyph-name="tubiaozhizuomoban3411" unicode="&#58632;" d="M948.11022222 711.50933334L860.16 799.34577778 511.88622222 450.95822222 163.61244445 799.34577778l-87.83644445-87.83644444 348.27377778-348.27377778-348.38755556-348.38755556 87.83644445-87.83644444 348.27377778 348.27377778L860.16-72.98844443999997l87.83644445 87.83644444-348.27377778 348.27377778 348.38755555 348.38755556z m0 0"  horiz-adv-x="1024" />

    
    <glyph glyph-name="tubiaozhizuomoban345" unicode="&#58633;" d="M565.58933333 363.12177778l370.11911112 370.34666667c15.01866667 15.01866667 15.01866667 39.25333333 0 54.272-15.01866667 15.01866667-39.25333333 15.01866667-54.272 0L511.43111111 417.39377778 141.312 787.74044445c-15.01866667 15.01866667-39.25333333 15.01866667-54.272 0-15.01866667-15.01866667-15.01866667-39.25333333 0-54.272l370.11911111-370.34666667-370.11911111-370.34666666c-15.01866667-15.01866667-15.01866667-39.25333333 0-54.272 15.01866667-15.01866667 39.25333333-15.01866667 54.272 0l370.11911111 370.34666666 370.00533334-370.34666666c15.01866667-15.01866667 39.25333333-15.01866667 54.272 0 15.01866667 15.01866667 15.01866667 39.25333333 0 54.272L565.58933333 363.12177778z m0 0"  horiz-adv-x="1024" />

    
    <glyph glyph-name="tubiaozhizuomoban" unicode="&#58880;" d="M701.2 505.96666667c6.3 0 12.5-0.2 18.7-0.5C694 642.16666667 551.8 746.66666667 380.1 746.66666667c-189.9 0-344-128.1-344-286.2 0-86.1 46.3-163.8 118.9-216.3 5.8-4.1 9.7-10.9 9.7-18.7 0-2.5-0.5-4.9-1.2-7.3-5.8-21.6-15.1-56.1-15.5-57.7-0.7-2.8-1.8-5.5-1.8-8.4 0-6.3 5.1-11.5 11.5-11.5 2.4 0 4.5 1 6.6 2.1l75.3 43.4c5.6 3.3 11.7 5.3 18.3 5.3 3.4 0 6.8-0.5 10.1-1.5 35.2-10.1 73.1-15.7 112.3-15.7 6.4 0 12.6 0.1 18.9 0.4-7.5 22.3-11.6 45.8-11.6 70.1 0 144.4 140.4 261.3 313.6 261.3z m-206.4 91.9c25.3 0 45.9-20.5 45.9-45.8 0-25.3-20.5-45.8-45.9-45.8-25.3 0-45.9 20.5-45.9 45.8 0.1 25.3 20.7 45.8 45.9 45.8z m-229.3-91.6c-25.3 0-45.9 20.5-45.9 45.8 0 25.3 20.5 45.8 45.9 45.8s45.9-20.5 45.9-45.8c0-25.3-20.6-45.8-45.9-45.8z m0 0M888.8 64.76666666999995c60.4 43.8 99 108.3 99 180.3 0 131.7-128.3 238.5-286.7 238.5-158.3 0-286.7-106.8-286.7-238.5s128.3-238.5 286.7-238.5c32.7 0 64.4 4.7 93.6 13.1 2.8 0.9 5.5 1.3 8.4 1.3 5.5 0 10.5-1.7 15.2-4.4l62.8-36.1c1.8-1.1 3.5-1.8 5.5-1.8 2.5 0 5 1 6.8 2.8 1.8 1.8 2.8 4.2 2.8 6.8 0 2.3-1 4.7-1.5 7-0.3 1.3-8.1 30.1-13 48.1-0.5 2-1 4-1 6.1 0.2 6.2 3.4 11.8 8.1 15.3zM605.7 283.06666667c-21.1 0-38.2 17.1-38.2 38.1s17.1 38.1 38.2 38.1 38.2-17.1 38.2-38.1c0.1-21-17.1-38.1-38.2-38.1z m191.1 0c-21.1 0-38.2 17.1-38.2 38.1s17.1 38.1 38.2 38.1 38.2-17.1 38.2-38.1-17.1-38.1-38.2-38.1z m0 0"  horiz-adv-x="1024" />

    
    <glyph glyph-name="tubiaozhizuomoban2" unicode="&#58881;" d="M244.34375 125.47916667000004c6.84375-4.96875 11.34375-13.03125 11.53125-21.9375 0-2.90625-0.5625-5.71875-1.40625-8.625-6.9375-25.78125-18-66.84375-18.46875-68.625-0.75-3.375-2.15625-6.65625-2.15625-10.03125 0-3.65625 1.40625-7.125 3.9375-9.65625 2.625-2.53125 6.09375-3.9375 9.65625-3.9375 2.90625 0 5.34375 1.03125 7.875 2.53125l89.53125 51.46875c6.65625 3.75 13.78125 6.1875 21.65625 6.1875 4.125 0 8.0625-0.5625 12-1.78125 41.625-12 86.8125-18.65625 133.5-18.65625 225.84375 0 408.84375 152.25 408.84375 340.03125C920.84375 570.41666667 737.75 722.66666667 512 722.66666667 286.15625 722.66666667 103.15625 570.41666667 103.15625 382.54166667000004c0-102.46875 54.9375-194.625 141.1875-257.0625z m403.6875 311.34375c-30 0-54.5625 24.375-54.5625 54.375s24.375 54.375 54.5625 54.375 54.5625-24.375 54.5625-54.375-24.375-54.375-54.5625-54.375z m-272.53125 0c-30 0-54.375 24.375-54.5625 54.375 0 30 24.375 54.375 54.5625 54.375s54.5625-24.375 54.5625-54.375-24.375-54.375-54.5625-54.375z m0 0"  horiz-adv-x="1024" />

    
    <glyph glyph-name="tubiaozhizuomoban4" unicode="&#58882;" d="M972.5 418.36666667v-0.1c-6.2-19-26.6-29.5-45.6-23.3-19 6.2-29.5 26.6-23.3 45.7h-0.1c18.9 58.6 6.9 125.5-37.2 174.5s-109.2 67.8-169.3 55c-19.6-4.2-38.8 8.3-43 27.9-4.2 19.6 8.3 38.9 27.9 43.1 84.5 18 176.2-8.3 238.2-77.3 62.2-69 78.9-163 52.4-245.5zM721.8 554.06666667c-16.8-3.6-33.3 7.2-36.9 24-3.6 16.9 7.2 33.5 23.9 37.1 41.2 8.8 85.9-4 116-37.6 30.3-33.6 38.4-79.4 25.4-119.6-5.3-16.4-22.8-25.4-39.2-20.1-16.4 5.3-25.3 23-20 39.3 6.3 19.7 2.4 42.1-12.4 58.5s-36.7 22.6-56.8 18.4z m-198.4-57.3c96.2 40.4 180.2 42.8 210.9-1.2 16.3-23.4 14.8-56.3-0.3-94.4-7-17.5 2.1-20.3 15.5-24.3 54.2-16.8 114.6-57.6 114.6-129.5 0-119-171.1-268.8-428.2-268.8-196.1 0-396.6 95.3-396.6 252.1 0 82 51.8 176.8 141 266.2C299.4 616.26666667 438.2 670.66666667 490.4 618.16666667c23-23 25.3-63.1 10.5-110.8-7.7-23.9 22.5-10.6 22.5-10.6z m-123.7-88.8c-156.5-15.5-275.2-111.6-265-214.6 10.2-103.1 145.3-174 301.7-158.5 156.5 15.5 275.1 111.6 265 214.7-10.1 103-145.2 174-301.7 158.4z m-64.5-328.8c-75.2 24.4-107.1 98.8-74.1 166 32.3 65.8 116.5 103 191 83.5 77.1-20 116.4-92.9 84.9-163.7-32-72.5-123.8-111.1-201.8-85.8z m42.5 141c-24.2 10.2-55.6-0.3-70.5-23.8-15.1-23.6-8-51.8 16-62.7 24.4-11.2 56.8-0.6 72 23.7 14.9 24.4 7.1 52.3-17.5 62.8z m59.8 24.8c-9.3 3.7-20.9-0.8-26.4-9.9-5.3-9.2-2.4-19.7 7-23.6 9.5-3.9 21.6 0.6 27.1 10 5.1 9.5 1.7 20.1-7.7 23.5z m0 0"  horiz-adv-x="1024" />

    
    <glyph glyph-name="tubiaozhizuomoban5" unicode="&#58898;" d="M414.18666667-46.93333332999998c-93.22666667 0-186.45333333 24.32-255.68 66.77333333-37.12 22.72-66.34666667 49.81333333-86.82666667 80.42666667-22.29333333 33.38666667-33.6 70.08-33.6 109.12 0 80 46.61333333 172.05333333 131.30666667 259.30666667C250.66666667 552.3199999999999 344 604.26666667 412.8 604.26666667c29.22666667 0 53.86666667-9.49333333 71.25333333-27.41333333 14.82666667-15.25333333 30.29333333-42.66666667 25.17333334-89.17333334 34.24 11.84 66.66666667 17.92 94.50666666 17.92 55.14666667 0 82.45333333-23.14666667 95.57333334-42.56 17.49333333-25.70666667 20.37333333-58.56 8.42666666-97.6 68.90666667-26.02666667 109.76-78.18666667 109.76-141.33333333 0-32.21333333-10.56-66.24-30.4-98.24-19.62666667-31.57333333-48.53333333-61.65333333-83.62666666-86.82666667-77.12-55.36-179.94666667-85.97333333-289.28-85.97333333zM412.8 541.44c-24.10666667 0-56.64-11.2-91.62666667-31.57333333-36.26666667-21.12-73.17333333-50.45333333-106.66666666-84.90666667-73.28-75.41333333-113.6-151.89333333-113.6-215.57333333 0-47.46666667 29.65333333-95.25333333 81.38666666-130.98666667 58.24-40.32 140.58666667-62.50666667 231.78666667-62.50666666 95.78666667 0 184.96 26.02666667 250.98666667 73.17333333 55.25333333 39.46666667 89.6 91.30666667 89.6 135.14666667 0 54.82666667-54.29333333 78.08-77.65333334 85.54666666-9.38666667 2.98666667-25.28 7.89333333-33.38666666 24.53333334-5.44 11.2-5.33333333 24.10666667 0.21333333 38.4 9.6 24.85333333 10.88 44.48 3.52 55.25333333-8.85333333 13.01333333-31.04 14.93333333-43.52 14.93333333-28.05333333 0-63.04-8.64-101.22666667-25.06666666l-0.74666666-0.32h-0.21333334c-6.08-2.56-15.25333333-5.44-24.64-5.44-17.70666667 0-27.41333333 9.49333333-31.57333333 15.25333333-4.37333333 5.97333333-10.88 18.88-4.8 38.4 9.49333333 31.46666667 8.85333333 56.74666667-1.6 67.62666667-5.44 5.33333333-14.18666667 8.10666667-26.24 8.10666666z m541.65333333-42.13333333c-17.38666667 0-31.46666667 14.08-31.46666666 31.46666667 0 98.56-80.32 178.66666667-179.09333334 178.66666666-17.38666667 0-31.46666667 14.08-31.46666666 31.46666667 0 17.28 14.08 31.46666667 31.46666666 31.46666667 133.44 0 242.02666667-108.37333333 242.02666667-241.49333334 0-17.38666667-14.08-31.57333333-31.46666667-31.57333333z m-147.41333333 0c-17.38666667 0-31.46666667 14.08-31.46666667 31.46666667s-14.18666667 31.57333333-31.68 31.57333333c-17.38666667 0-31.46666667 14.08-31.46666666 31.46666667 0 17.28 14.08 31.46666667 31.46666666 31.46666666 52.16 0 94.72-42.34666667 94.72-94.4-0.10666667-17.38666667-14.18666667-31.57333333-31.57333333-31.57333333z"  horiz-adv-x="1024" />

    
    <glyph glyph-name="tubiaozhizuomoban6" unicode="&#58883;" d="M170.98666667 303.03999999999996c-29.76-74.45333333-37.22666667-141.54666667-7.46666667-156.37333333 14.93333333-7.46666667 44.69333333 14.93333333 66.98666667 44.69333333 7.46666667-37.22666667 29.76-74.45333333 66.98666666-104.21333333-44.69333333-14.93333333-66.98666667-37.22666667-66.98666666-59.62666667 0-44.69333333 59.62666667-74.45333333 134.08-74.45333333 66.98666667 0 126.61333333 29.76 134.08 59.62666667h14.93333333c14.93333333-29.76 74.45333333-59.62666667 141.54666667-59.62666667 74.45333333 0 134.08 29.76 134.08 74.45333333 0 22.29333333-22.29333333 44.69333333-59.62666667 59.62666667 29.76 29.76 59.62666667 66.98666667 66.98666667 104.21333333 22.29333333-37.22666667 52.16-59.62666667 66.98666666-44.69333333 22.29333333 14.93333333 22.29333333 81.92-7.46666666 156.37333333-22.29333333 59.62666667-52.16 96.85333333-74.45333334 104.21333334v7.46666666c0 22.29333333-7.46666667 44.69333333-14.93333333 59.62666667v7.46666667c0 7.46666667 0 22.29333333-7.46666667 29.76C751.78666667 653.12 662.4 772.26666667 513.49333333 772.26666667 364.58666667 772.26666667 275.2 653.12 267.73333333 504.21333334c0-7.46666667-7.46666667-14.93333333-7.46666666-22.29333334v-7.46666666c-7.46666667-14.93333333-14.93333333-37.22666667-14.93333334-59.62666667v-7.46666667c-22.29333333-7.46666667-52.05333333-52.16-74.34666666-104.32"  horiz-adv-x="1024" />

    
    <glyph glyph-name="tubiaozhizuomoban7" unicode="&#58899;" d="M378.88-46.93333332999998c-30.08 0-60.69333333 5.33333333-90.88 15.89333333-32.96 11.52-56.42666667 26.77333333-71.78666667 46.61333334-15.57333333 20.05333333-22.50666667 44.37333333-21.33333333 74.34666666 0.64 13.22666667-8.42666667 28.48-17.70666667 37.65333334-21.44 21.44-32.64 48.21333333-35.30666666 84.16-4.58666667 63.78666667 7.14666667 117.86666667 34.88 160.74666666 32.64 50.45333333 43.52 106.45333333 54.18666666 160.64l0.21333334 0.96C253.86666667 649.6 321.28 725.44 431.46666667 759.6800000000001c27.09333333 8.42666667 54.93333333 12.58666667 82.77333333 12.58666667 67.30666667 0 132.90666667-24.74666667 184.74666667-69.76 52.8-45.86666667 87.46666667-109.65333333 97.49333333-179.62666667 5.97333333-41.17333333 16.85333333-94.93333333 48.42666667-144.74666666 32.10666667-50.56 43.73333333-110.4 35.52-182.72-3.73333333-32.96-19.41333333-59.62666667-46.61333334-79.46666667-1.6-1.28-2.02666667-1.92-2.13333333-2.13333333-0.10666667-0.10666667-0.21333333-0.32-0.32-0.64-0.21333333-0.32-0.53333333-0.96-0.64-1.17333334-0.21333333-0.53333333-0.32-0.74666667-0.64-1.92l-0.10666667-0.42666666c-0.21333333-0.64-0.21333333-1.17333333-0.42666666-2.24v-0.42666667c1.81333333-40.53333333-8.21333333-74.13333333-29.76-99.94666667-19.94666667-24-50.98666667-39.46666667-94.61333334-47.36-23.14666667-4.26666667-44.16-6.29333333-64.21333333-6.29333333-37.12 0-69.76 7.04-99.73333333 21.65333333-9.38666667 4.58666667-18.45333333 6.82666667-27.62666667 6.82666667-12.05333333 0-22.93333333-3.94666667-32-7.78666667-33.38666667-13.86666667-67.94666667-21.01333333-102.72-21.01333333z m132.69333333 89.06666667c15.46666667 0 31.25333333-4.37333333 49.81333334-13.65333334 26.24-13.22666667 54.18666667-19.94666667 83.09333333-19.94666666 29.12 0 59.09333333 6.82666667 88.96 20.26666666 29.22666667 13.01333333 41.49333333 29.65333333 37.33333333 50.98666667-3.2 16.53333333-17.6 30.4-29.22666666 41.6l-1.70666667 1.70666667c-5.33333333 5.12-11.52 8.53333333-16.42666667 10.98666666l-6.29333333 3.2 3.84 5.86666667c9.70666667 14.82666667 18.98666667 29.12 28.58666667 43.84l3.94666666 5.97333333 9.17333334-7.78666666c8.96-7.57333333 19.2-16.21333333 32.85333333-27.84l2.13333333-1.38666667c11.84 12.58666667 18.77333333 23.25333333 21.33333334 32.42666667l0.74666666 2.77333333c3.62666667 13.44 6.50666667 24.10666667 6.82666667 35.52 1.70666667 56.96-14.50666667 107.94666667-48.10666667 151.46666667-0.64 0.85333333-2.24 2.88-2.24 2.88-7.04 8.96-14.29333333 18.34666667-16.32 27.30666666-4.8 21.65333333-8.64 44.05333333-12.37333333 65.70666667-3.30666667 19.30666667-6.72 39.25333333-10.77333333 58.77333333-21.76 102.08-108.8 177.38666667-212.16 182.93333334-4.05333333 0.21333333-8.21333333 0.32-12.37333334 0.32-100.8 0-190.82666667-67.62666667-218.98666666-164.37333334-11.41333333-38.93333333-20.05333333-81.28-25.81333334-125.76-2.24-17.49333333-5.86666667-30.82666667-17.06666666-43.30666666-32-36.05333333-49.17333333-82.02666667-52.8-140.58666667-1.49333333-24-3.2-53.86666667 27.52-77.54666667l6.50666666-5.01333333 6.29333334 5.33333333c9.49333333 8 18.66666667 15.89333333 27.62666666 23.46666667l5.97333334 5.01333333 3.84-6.18666666c8.74666667-13.97333333 18.45333333-29.12 28.58666666-45.22666667l3.73333334-5.86666667-6.18666667-3.09333333c-8-4.05333333-14.72-7.68-21.12-11.94666667-24.21333333-16.10666667-29.12-32.85333333-28.90666667-44.05333333 0.10666667-11.41333333 5.65333333-28.26666667 31.04-44.26666667 6.29333333-3.94666667 12.58666667-7.04 18.45333334-9.06666666 28.16-9.92 55.25333333-14.93333333 80.64-14.93333334 29.44 0 57.28 6.72 82.66666666 20.16 16.96 9.17333333 32.10666667 13.33333333 47.36 13.33333334z"  horiz-adv-x="1024" />

    
    <glyph glyph-name="tubiaozhizuomoban10" unicode="&#58884;" d="M789.27644445-74.24000000000001l-43.69066667 262.144c-94.09422222-13.42577778-272.27022222-33.56444445-450.33244445-3.41333333l288.99555556 215.04S375.92177778 429.79555556 244.84977778 426.38222222c0 0 225.16622222 57.11644445 494.02311111 6.7128889L463.30311111 228.18133334000004s164.63644445-20.13866667 282.28266667-26.85155556l-6.71288889 40.27733334 228.57955556 225.16622222-312.54755556 47.104L510.29333333 799.57333334l-141.08444444-288.99555556-312.54755556-47.104 228.57955556-225.16622222L228.01066667-74.24000000000001l278.98311111 147.91111112 282.28266667-147.91111112z m20.13866666 272.27022222c-20.13866667 0-43.69066667 0-67.24266666 3.41333334l3.41333333-13.42577778c40.27733333 3.29955555 63.82933333 10.01244445 63.82933333 10.01244444z m0 0"  horiz-adv-x="1024" />

    
    <glyph glyph-name="tubiaozhizuomoban11" unicode="&#58900;" d="M671.40266667 401.80622222c-110.02311111 20.25244445-222.43555555 24.68977778-333.71022222 12.8568889 71.56622222-4.096 142.44977778-16.72533333 211.05777777-37.31911112L347.81866667 232.50488888999996c111.84355555-22.18666667 227.10044445-19.91111111 338.03377778 6.94044445-199.68 16.49777778-224.71111111 30.83377778-224.71111112 30.83377778l210.26133334 131.5271111z m100.57955555-474.79466666c-7.73688889 0-15.47377778 2.16177778-22.07288889 6.144L511.43111111 74.35377777999997l-238.93333333-141.42577778c-14.44977778-8.53333333-32.54044445-7.73688889-46.30755556 1.70666667-14.22222222 9.89866667-20.93511111 27.42044445-16.83911111 44.37333333l63.03288889 265.55733334-210.14755555 178.85866666c-13.19822222 11.03644445-18.20444445 29.01333333-12.8568889 45.39733334 5.34755555 16.15644445 19.79733333 27.53422222 36.63644445 29.01333333l277.95911111 23.43822222 108.31644444 251.67644445c4.20977778 9.78488889 12.06044445 17.63555555 21.73155556 21.95911111 21.504 9.55733333 46.76266667-0.22755555 56.32-21.61777778L658.77333333 521.3866666700001l277.95911112-23.21066667c16.83911111-1.47911111 31.28888889-12.74311111 36.63644444-28.78577778 0.34133333-1.024 0.56888889-1.93422222 0.79644444-2.95822222 4.096-15.58755555-1.25155555-32.31288889-13.65333333-42.66666666L750.47822222 244.79288888999997 813.39733333-20.764444440000034c4.096-16.72533333-2.61688889-34.24711111-16.72533333-44.25955556-7.05422222-5.12-15.81511111-7.85066667-24.68977778-7.96444444z m7.62311111 56.09244444l0.34133334-0.22755555-0.34133334 0.22755555z m-650.80888888 460.00355556l194.56-165.54666667c8.30577778-7.05422222 12.06044445-18.20444445 9.44355555-28.78577777L274.20444445 1.7635555599999861l222.32177777 131.52711111c9.10222222 5.34755555 20.36622222 5.34755555 29.46844445 0l222.32177778-131.52711111-58.368 246.784c-2.50311111 10.69511111 1.13777778 21.73155555 9.44355555 28.89955556L894.29333333 442.99377778l-257.59288888 21.61777778c-10.69511111 0.91022222-20.02488889 7.50933333-24.23466667 17.408l-101.03466667 234.72355556-101.14844444-234.72355556c-4.20977778-9.89866667-13.53955555-16.49777778-24.23466667-17.408l-257.25155555-21.504z m0 0"  horiz-adv-x="1024" />

    
    <glyph glyph-name="tubiaozhizuomoban12" unicode="&#58885;" d="M955.15625 637.16666667c-32.625-14.0625-68.0625-24.1875-104.625-28.125 37.6875 22.5 66.375 57.9375 79.875 100.125-34.875-20.8125-74.25-36-115.21875-43.875C782 700.72916667 734.75 722.66666667 682.4375 722.66666667c-100.6875 0-181.59375-81.5625-181.59375-181.6875 0-14.0625 1.6875-28.125 4.5-41.625-150.75 7.875-285.09375 79.875-374.53125 190.125C115.0625 662.38541667 106.0625 631.54166667 106.0625 597.79166667c0-63.09375 32.0625-118.6875 80.90625-151.3125-29.8125 1.125-57.9375 9.5625-82.125 23.15625v-2.25c0-88.3125 62.4375-161.4375 145.59375-178.3125-15.1875-3.9375-31.5-6.1875-47.8125-6.1875-11.8125 0-22.96875 1.125-34.3125 2.8125 22.96875-72 90-124.3125 169.78125-126-62.4375-48.84375-140.625-77.625-225.46875-77.625-15.1875 0-29.25 0.5625-43.875 2.25 80.53125-51.65625 176.0625-81.46875 278.90625-81.46875 334.03125 0 516.75 276.75 516.75 516.84375 0 7.875 0 15.75-0.5625 23.625 35.625 25.78125 66.5625 57.84375 91.3125 93.84375z m0 0"  horiz-adv-x="1024" />

    
    <glyph glyph-name="tubiaozhizuomoban13" unicode="&#58901;" d="M343.90625 2.6666666700000405c-98.8125 0-194.4375 28.3125-276.65625 81.75l3.65625 10.125c14.25-1.6875 28.40625-2.53125 42-2.53125 75.1875 0 146.34375 22.96875 206.71875 66.46875-72.5625 7.3125-134.53125 56.90625-157.03125 127.21875l-2.90625 9 9.28125-1.875c10.5-2.15625 21.375-3.1875 32.53125-3.1875 7.6875 0 15.375 0.46875 22.96875 1.5-31.96875 10.96875-60.75 30.65625-82.59375 57C114.59375 381.04166667000004 99.5 422.85416667 99.5 465.69791667v11.71875l8.25-4.59375c18.375-10.3125 38.71875-17.15625 59.4375-20.0625-41.90625 34.875-66.375 86.625-66.375 141.84375 0 32.53125 8.625 64.59375 24.9375 92.71875l4.03125 6.9375 5.0625-6.1875c88.40625-108.75 218.34375-175.78125 357.5625-184.6875-2.15625 11.0625-3.1875 22.78125-3.1875 34.875 0 49.21875 19.125 95.53125 53.90625 130.40625 34.78125 34.875 81.09375 54 130.3125 54 49.6875 0 97.78125-20.4375 132.46875-56.15625 38.25 7.78125 74.8125 21.9375 108.84375 42.09375l12.5625 7.40625-4.40625-13.875c-11.0625-34.78125-32.34375-65.34375-60.9375-88.125 26.71875 5.0625 52.6875 13.125 77.4375 24.09375l17.4375 7.6875-10.59375-15.84375c-23.625-35.4375-53.25-66.5625-88.125-92.34375 0.28125-6.75 0.375-13.59375 0.375-20.34375 0-59.8125-11.625-122.53125-33.65625-181.3125-23.0625-61.6875-56.34375-117.375-98.90625-165.65625-45.65625-51.84375-99.9375-92.53125-161.34375-120.9375-67.03125-30.9375-141.28125-46.6875-220.6875-46.6875z m-134.90625 60.46875c43.6875-13.03125 88.96875-19.6875 134.90625-19.6875 73.5 0 142.03125 14.53125 203.53125 43.03125 56.25 26.0625 106.03125 63.28125 147.9375 110.90625 39.1875 44.4375 69.84375 95.90625 91.3125 153 20.25 54.375 30.9375 112.03125 30.9375 166.96875 0 7.40625-0.1875 14.625-0.5625 21.46875l-0.84375 18.84375 15.375 11.25c1.03125 0.75 2.34375 1.59375 3.75 2.625-1.6875-0.09375-3.375-0.09375-5.15625-0.09375-3.9375 0-7.59375 0.1875-10.96875 0.5625-15.28125 1.6875-39 9.09375-40.03125 9.46875l-9 2.8125 6.84375 6.46875c1.03125 0.9375 24.75 23.25 33 30.5625 2.25 1.96875 4.40625 4.03125 6.46875 5.90625-1.96875-0.375-3.9375-0.84375-5.90625-1.21875l-19.125-3.75-13.3125 14.25c-27 28.96875-65.15625 45.46875-104.90625 45.46875-79.3125 0-143.8125-64.3125-143.8125-143.4375 0-11.4375 1.21875-22.5 3.75-32.90625l10.5-45.375-46.5 2.4375c-77.90625 3.9375-152.34375 23.90625-221.25 59.53125-48.65625 24.9375-93.1875 57.1875-132.65625 96.09375-1.3125-8.0625-1.96875-16.03125-1.96875-23.8125 0-48.1875 23.90625-92.90625 64.03125-119.8125 0.65625-0.46875 61.59375-42.375 84.9375-53.53125l19.3125-9.1875-21.28125-1.3125c-13.6875-0.84375-30.1875-1.3125-48.84375-1.3125-29.34375 0-54.46875 1.125-54.75 1.125-11.15625 0.65625-23.0625 1.59375-35.4375 4.03125 17.53125-46.21875 57.28125-80.34375 105.75-90l113.8125-20.0625 0.75-10.6875-112.21875-37.3125h-0.1875c-10.3125-2.8125-20.625-4.875-30.65625-6.09375 26.53125-32.25 66.28125-51.65625 108.375-52.5l98.4375-1.78125-77.4375-60.75c-34.125-26.8125-72-47.625-112.5-61.78125-11.53125-4.03125-23.0625-7.5-34.40625-10.40625z"  horiz-adv-x="1024" />

    
    <glyph glyph-name="tubiaozhizuomoban14" unicode="&#58886;" d="M851.74044445 799.57333334H172.25955555c-53.36177778 0-97.16622222-43.69066667-97.16622222-97.16622222v-679.59466667c0-53.36177778 43.69066667-97.16622222 97.16622222-97.16622223H512V265.72799999999995h-97.16622222V385.76355556H512v99.55555556c0 105.01688889 58.82311111 178.85866667 182.72711111 178.85866666l87.49511111-0.11377778v-126.40711111h-58.14044444c-48.24177778 0-66.56-36.18133333-66.56-69.85955555v-82.03377778h124.58666667l-27.53422223-120.14933334H657.63555555V-74.24000000000001h194.1048889c53.36177778 0 97.16622222 43.57688889 97.16622222 97.16622222V702.52088889c0 53.36177778-43.69066667 97.05244445-97.16622222 97.05244445z m0 0"  horiz-adv-x="1024" />

    
    <glyph glyph-name="tubiaozhizuomoban15" unicode="&#58902;" d="M642.84444445-74.24000000000001c-14.90488889 0-27.07911111 12.17422222-27.07911112 27.07911112V263.79377778c0 14.90488889 12.17422222 27.07911111 27.07911112 27.07911111h96.36977777l18.432 58.93688889H642.84444445c-14.90488889 0-27.07911111 12.17422222-27.07911112 27.07911111V498.74488889c0 46.87644445 46.99022222 74.752 125.72444445 74.752h15.70133333v58.93688889h-50.97244444c-65.99111111 0-145.63555555-47.78666667-145.63555556-107.17866666v-148.36622223c0-14.90488889-12.17422222-27.07911111-27.07911111-27.07911111H419.15733333v-58.93688889h114.23288889c14.90488889 0 27.07911111-12.17422222 27.07911111-27.07911111v-310.95466666c0-14.90488889-12.17422222-27.07911111-27.07911111-27.07911112H183.06844445c-25.71377778 0-52.79288889 11.83288889-74.18311112 32.54044445-21.504 20.70755555-33.792 47.104-33.792 72.24888889v671.28888888c0 26.51022222 12.51555555 51.54133333 35.38488889 70.54222223 20.70755555 17.29422222 47.21777778 27.19288889 72.704 27.19288889h671.28888889c53.02044445 0 94.54933333-42.89422222 94.54933334-97.73511112v-671.28888888c0-50.63111111-38.00177778-104.78933333-94.54933334-104.78933334H642.84444445z m211.51288888 54.15822222c23.09688889 0 40.39111111 26.73777778 40.39111112 50.63111112v671.28888888c0 24.80355555-17.408 43.57688889-40.39111112 43.5768889h-671.28888888c-23.77955555 0-53.93066667-20.48-53.93066667-43.5768889v-671.28888888c0-23.21066667 29.24088889-50.63111111 53.93066667-50.63111112H506.31111111V236.71466667000004H392.07822222c-14.90488889 0-27.07911111 12.17422222-27.07911111 27.07911111v113.09511111c0 14.90488889 12.17422222 27.07911111 27.07911111 27.07911111H506.31111111V525.1413333400001c0 42.21155555 22.86933333 82.944 64.39822222 114.57422222 38.912 29.696 88.29155555 46.76266667 135.39555556 46.76266666h78.05155556c14.90488889 0 27.07911111-12.17422222 27.0791111-27.0791111v-113.09511112c0-14.90488889-12.17422222-27.07911111-27.0791111-27.07911111h-42.66666667c-44.14577778 0-71.56622222-10.69511111-71.56622223-20.59377777v-94.89066667h124.58666667c8.53333333 0 16.72533333-4.096 21.84533333-11.03644445 5.12-6.82666667 6.59911111-15.92888889 3.98222223-24.12088888l-35.27111111-112.98133334c-3.52711111-11.37777778-13.99466667-19.00088889-25.82755556-19.00088889h-89.20177778v-256.79644444h184.32z"  horiz-adv-x="1024" />

    
    <glyph glyph-name="tubiaozhizuomoban16" unicode="&#58887;" d="M92.8-46.93333332999998h192.32V498.77333334H92.8V-46.93333332999998z m640 562.98666667c-79.57333333 0-123.52-26.45333333-174.08-90.66666667v73.49333333h-192V-46.93333332999998h192V249.60000000000002c0 62.61333333 30.08 123.84 102.08 123.84s89.70666667-61.22666667 89.70666667-122.34666666V-46.93333332999998h191.46666666V263.25333334000004c0 215.57333333-129.6 252.8-209.17333333 252.8zM189.33333333 772.26666667C130.13333333 772.26666667 82.13333333 729.17333334 82.13333333 675.94666667s48-96.21333333 107.2-96.21333333S296.53333333 622.82666667 296.53333333 675.94666667c0 53.22666667-48 96.32-107.2 96.32z m0 0"  horiz-adv-x="1024" />

    
    <glyph glyph-name="tubiaozhizuomoban17" unicode="&#58903;" d="M694.1-55.43333332999998V245.36666666999997c0 29.6-5 51.9-14.8 66.3-8.8 13-22 19-41.4 19-36 0-52.5-26.6-59.1-42.6-2.4-6.9-3.7-17.9-3.7-31V-55.33333332999996H347.8l0.1 29.5c2 453.1 0.1 504.1 0 506l-1.3 30.5h228.3v-25.7c9.4 7 19.4 13 30.1 18.1 27.1 12.9 58.2 19.4 92.6 19.4 65.6 0 121-22.6 160.3-65.3 20.5-22.3 36.3-49.9 46.9-81.8 10.7-32.4 16.2-69.6 16.2-110.6V-55.33333332999996H694.1z m168.4 58.7V264.76666666999995c0 126.5-60 199.1-164.7 199.1-69.3 0-102.1-33.3-122.7-63.4v-22.1h-83.6l24.9 39.4v34.3H407.1c0.4-47.5 0.9-164.9-0.3-448.7h109.6V257.06666667c0 20.7 2.5 38.1 7.4 51.5l0.4 1c6.1 15 17.8 36.5 39.1 53.8 21.2 17.2 46.3 25.9 74.6 25.9 36.9 0 65.9-13.2 86-39.3 19.1-24.8 28.8-60 28.8-104.6v-242h109.8zM85.8-55.43333332999998V510.66666667h227.6v-566.1H85.8z m169 58.7V451.96666667H144.5v-448.7h110.3z m-56.2 517.8c-34.1 0-65.2 11.7-87.6 33-22.5 21.4-34.9 51.2-34.9 83.9 0 32.5 12.5 62.3 35.3 83.7 22.7 21.4 54.4 33.2 89.3 33.2 34.4 0 65.6-11.5 88-32.4 22.6-21.2 35.2-51 35.6-84.1 0.3-31.1-11.1-60.1-32.2-81.4-22.8-23.1-55.6-35.8-92.4-35.8h-1.1z m2.1 175.1c-39.4 0-65.9-23.4-65.9-58.2 0-34.8 25.7-58.2 63.8-58.2h1c21.2 0 38.7 6.4 50.6 18.4 10 10.1 15.4 24.1 15.3 39.5-0.3 35.6-25.8 58.5-64.8 58.5z"  horiz-adv-x="1024" />

    
    <glyph glyph-name="tubiaozhizuomoban24" unicode="&#58888;" d="M413.65333333 234.66666667000004c-52.16-56.53333333-133.22666667-76.05333333-205.44-49.49333333-72.10666667 26.66666667-121.06666667 94.18666667-124.05333333 170.98666666-2.77333333 76.90666667 41.06666667 147.94666667 111.04 179.94666667s152.32 18.56 208.53333333-33.92l165.76 108.05333333c-27.41333333 67.09333333 0 144.10666667 63.57333334 178.88 63.57333333 34.77333333 143.14666667 16.21333333 184.85333333-43.2 41.6-59.30666667 32.10666667-140.48-22.18666667-188.48-54.29333333-48-136-47.57333333-189.76 0.96l-163.62666666-106.66666666c13.97333333-26.45333333 21.76-56.53333333 21.76-88.42666667 0-26.02666667-5.33333333-51.73333333-15.68-75.52l238.4-134.08c46.4 55.68 127.14666667 67.73333333 187.73333333 27.94666667s81.49333333-118.82666667 48.74666667-183.46666667c-32.85333333-64.64-108.90666667-94.29333333-176.85333334-68.90666667-67.94666667 25.38666667-105.92 97.70666667-88.32 168L413.65333333 234.66666667000004z m0 0"  horiz-adv-x="1024" />

    
    <glyph glyph-name="tubiaozhizuomoban25" unicode="&#58904;" d="M762.98666667 221.86666666999997c-48.32 0-91.52-23.14666667-118.72-58.34666667L399.89333333 305.28c15.04 37.22666667 15.04 78.4 0 115.62666667l244.37333334 141.86666667c27.2-35.2 70.4-58.34666667 118.72-58.34666667 83.52 0 150.82666667 67.41333333 150.82666666 150.82666667 0 83.52-67.41333333 150.82666667-150.82666666 150.82666666-83.52 0-150.82666667-67.41333333-150.82666667-150.82666666 0-20.16 4.05333333-40.21333333 11.09333333-57.28L378.77333333 455.14666667c-28.16 35.2-70.4 58.34666667-118.72 58.34666667-83.52 0-150.82666667-67.41333333-150.82666666-150.82666667 0-83.52 67.41333333-150.82666667 150.82666666-150.82666667 48.32 0 91.52 23.14666667 118.72 58.34666667l244.37333334-141.76c-7.04-17.06666667-11.09333333-37.22666667-11.09333334-57.28 0-83.52 67.41333333-150.82666667 150.82666667-150.82666667 83.52 0 150.82666667 67.41333333 150.82666667 150.82666667 0.10666667 83.30666667-67.30666667 150.72-150.72 150.72z m0 543.04c61.33333333 0 110.61333333-49.28 110.61333333-110.61333333s-49.28-110.61333333-110.61333333-110.61333334-110.61333333 49.28-110.61333334 110.61333334 49.28 110.61333333 110.61333334 110.61333333zM260.05333333 251.94666667c-61.33333333 0-110.61333333 49.28-110.61333333 110.61333333s49.28 110.61333333 110.61333333 110.61333334 110.61333333-49.28 110.61333334-110.61333334c0.10666667-61.33333333-49.17333333-110.61333333-110.61333334-110.61333333z m502.93333334-291.62666667c-61.33333333 0-110.61333333 49.28-110.61333334 110.61333334s49.28 110.61333333 110.61333334 110.61333333S873.6 132.26666666999995 873.6 70.93333333999999s-49.28-110.61333333-110.61333333-110.61333334z m0 0"  horiz-adv-x="1024" />

    


  </font>
</defs>
</svg>
